  0
SECTION
  2
HEADER
  9
$ACADVER
  1
AC1021
  9
$ACADMAINTVER
 70
     1
  9
$DWGCODEPAGE
  3
ANSI_1252
  9
$LASTSAVEDBY
  1
brockha
  9
$INSBASE
 10
0.0
 20
0.0
 30
0.0
  9
$EXTMIN
 10
-1236.866435698189
 20
-757.3864447243082
 30
0.0
  9
$EXTMAX
 10
772.9711554357517
 20
1063.731644173136
 30
0.0
  9
$LIMMIN
 10
0.0
 20
0.0
  9
$LIMMAX
 10
12.0
 20
9.0
  9
$ORTHOMODE
 70
     0
  9
$REGENMODE
 70
     1
  9
$FILLMODE
 70
     1
  9
$QTEXTMODE
 70
     0
  9
$MIRRTEXT
 70
     1
  9
$LTSCALE
 40
1.0
  9
$ATTMODE
 70
     1
  9
$TEXTSIZE
 40
4.167200137414932
  9
$TRACEWID
 40
0.05
  9
$TEXTSTYLE
  7
STANDARD
  9
$CLAYER
  8
0
  9
$CELTYPE
  6
CONTINUOUS
  9
$CECOLOR
 62
   256
  9
$CELTSCALE
 40
1.0
  9
$DISPSILH
 70
     0
  9
$DIMSCALE
 40
0.0
  9
$DIMASZ
 40
3.0
  9
$DIMEXO
 40
0.0625
  9
$DIMDLI
 40
0.38
  9
$DIMRND
 40
0.0
  9
$DIMDLE
 40
0.0
  9
$DIMEXE
 40
0.18
  9
$DIMTP
 40
0.0
  9
$DIMTM
 40
0.0
  9
$DIMTXT
 40
0.18
  9
$DIMCEN
 40
0.09
  9
$DIMTSZ
 40
0.0
  9
$DIMTOL
 70
     0
  9
$DIMLIM
 70
     0
  9
$DIMTIH
 70
     1
  9
$DIMTOH
 70
     1
  9
$DIMSE1
 70
     0
  9
$DIMSE2
 70
     0
  9
$DIMTAD
 70
     0
  9
$DIMZIN
 70
     0
  9
$DIMBLK
  1

  9
$DIMASO
 70
     1
  9
$DIMSHO
 70
     1
  9
$DIMPOST
  1

  9
$DIMAPOST
  1

  9
$DIMALT
 70
     1
  9
$DIMALTD
 70
     0
  9
$DIMALTF
 40
25.4
  9
$DIMLFAC
 40
0.03937
  9
$DIMTOFL
 70
     1
  9
$DIMTVP
 40
0.0
  9
$DIMTIX
 70
     0
  9
$DIMSOXD
 70
     0
  9
$DIMSAH
 70
     0
  9
$DIMBLK1
  1

  9
$DIMBLK2
  1

  9
$DIMSTYLE
  2
STANDARD
  9
$DIMCLRD
 70
     0
  9
$DIMCLRE
 70
     0
  9
$DIMCLRT
 70
     1
  9
$DIMTFAC
 40
1.0
  9
$DIMGAP
 40
0.5
  9
$DIMJUST
 70
     0
  9
$DIMSD1
 70
     0
  9
$DIMSD2
 70
     0
  9
$DIMTOLJ
 70
     1
  9
$DIMTZIN
 70
     0
  9
$DIMALTZ
 70
     0
  9
$DIMALTTZ
 70
     0
  9
$DIMUPT
 70
     0
  9
$DIMDEC
 70
     4
  9
$DIMTDEC
 70
     4
  9
$DIMALTU
 70
     2
  9
$DIMALTTD
 70
     0
  9
$DIMTXSTY
  7
STANDARD
  9
$DIMAUNIT
 70
     0
  9
$DIMADEC
 70
     0
  9
$DIMALTRND
 40
0.0
  9
$DIMAZIN
 70
     0
  9
$DIMDSEP
 70
    46
  9
$DIMATFIT
 70
     3
  9
$DIMFRAC
 70
     0
  9
$DIMLDRBLK
  1

  9
$DIMLUNIT
 70
     2
  9
$DIMLWD
 70
    -2
  9
$DIMLWE
 70
    -2
  9
$DIMTMOVE
 70
     2
  9
$DIMFXL
 40
1.0
  9
$DIMFXLON
 70
     0
  9
$DIMJOGANG
 40
0.7853981633974483
  9
$DIMTFILL
 70
     0
  9
$DIMTFILLCLR
 70
     0
  9
$DIMARCSYM
 70
     0
  9
$DIMLTYPE
  6

  9
$DIMLTEX1
  6

  9
$DIMLTEX2
  6

  9
$LUNITS
 70
     2
  9
$LUPREC
 70
     4
  9
$SKETCHINC
 40
0.1
  9
$FILLETRAD
 40
0.0
  9
$AUNITS
 70
     0
  9
$AUPREC
 70
     0
  9
$MENU
  1
acad
  9
$ELEVATION
 40
0.0
  9
$PELEVATION
 40
0.0
  9
$THICKNESS
 40
0.0
  9
$LIMCHECK
 70
     0
  9
$CHAMFERA
 40
0.0
  9
$CHAMFERB
 40
0.0
  9
$CHAMFERC
 40
0.0
  9
$CHAMFERD
 40
0.0
  9
$SKPOLY
 70
     0
  9
$TDCREATE
 40
2450953.390534838
  9
$TDUCREATE
 40
2450953.598868171
  9
$TDUPDATE
 40
2454081.556225764
  9
$TDUUPDATE
 40
2454081.764559097
  9
$TDINDWG
 40
0.0018421181
  9
$TDUSRTIMER
 40
0.0018421181
  9
$USRTIMER
 70
     1
  9
$ANGBASE
 50
0.0
  9
$ANGDIR
 70
     0
  9
$PDMODE
 70
     0
  9
$PDSIZE
 40
0.0
  9
$PLINEWID
 40
0.0
  9
$SPLFRAME
 70
     0
  9
$SPLINETYPE
 70
     6
  9
$SPLINESEGS
 70
     8
  9
$HANDSEED
  5
1669
  9
$SURFTAB1
 70
     6
  9
$SURFTAB2
 70
     6
  9
$SURFTYPE
 70
     6
  9
$SURFU
 70
     6
  9
$SURFV
 70
     6
  9
$UCSBASE
  2

  9
$UCSNAME
  2

  9
$UCSORG
 10
0.0
 20
0.0
 30
0.0
  9
$UCSXDIR
 10
1.0
 20
0.0
 30
0.0
  9
$UCSYDIR
 10
0.0
 20
1.0
 30
0.0
  9
$UCSORTHOREF
  2

  9
$UCSORTHOVIEW
 70
     0
  9
$UCSORGTOP
 10
0.0
 20
0.0
 30
0.0
  9
$UCSORGBOTTOM
 10
0.0
 20
0.0
 30
0.0
  9
$UCSORGLEFT
 10
0.0
 20
0.0
 30
0.0
  9
$UCSORGRIGHT
 10
0.0
 20
0.0
 30
0.0
  9
$UCSORGFRONT
 10
0.0
 20
0.0
 30
0.0
  9
$UCSORGBACK
 10
0.0
 20
0.0
 30
0.0
  9
$PUCSBASE
  2

  9
$PUCSNAME
  2

  9
$PUCSORG
 10
0.0
 20
0.0
 30
0.0
  9
$PUCSXDIR
 10
1.0
 20
0.0
 30
0.0
  9
$PUCSYDIR
 10
0.0
 20
1.0
 30
0.0
  9
$PUCSORTHOREF
  2

  9
$PUCSORTHOVIEW
 70
     0
  9
$PUCSORGTOP
 10
0.0
 20
0.0
 30
0.0
  9
$PUCSORGBOTTOM
 10
0.0
 20
0.0
 30
0.0
  9
$PUCSORGLEFT
 10
0.0
 20
0.0
 30
0.0
  9
$PUCSORGRIGHT
 10
0.0
 20
0.0
 30
0.0
  9
$PUCSORGFRONT
 10
0.0
 20
0.0
 30
0.0
  9
$PUCSORGBACK
 10
0.0
 20
0.0
 30
0.0
  9
$USERI1
 70
     0
  9
$USERI2
 70
     0
  9
$USERI3
 70
     0
  9
$USERI4
 70
     0
  9
$USERI5
 70
     0
  9
$USERR1
 40
0.0
  9
$USERR2
 40
0.0
  9
$USERR3
 40
0.0
  9
$USERR4
 40
0.0
  9
$USERR5
 40
0.0
  9
$WORLDVIEW
 70
     1
  9
$SHADEDGE
 70
     3
  9
$SHADEDIF
 70
    70
  9
$TILEMODE
 70
     1
  9
$MAXACTVP
 70
    16
  9
$PINSBASE
 10
0.0
 20
0.0
 30
0.0
  9
$PLIMCHECK
 70
     0
  9
$PEXTMIN
 10
1.000000000000000E+20
 20
1.000000000000000E+20
 30
1.000000000000000E+20
  9
$PEXTMAX
 10
-1.000000000000000E+20
 20
-1.000000000000000E+20
 30
-1.000000000000000E+20
  9
$PLIMMIN
 10
0.0
 20
0.0
  9
$PLIMMAX
 10
12.0
 20
9.0
  9
$UNITMODE
 70
     0
  9
$VISRETAIN
 70
     0
  9
$PLINEGEN
 70
     0
  9
$PSLTSCALE
 70
     0
  9
$TREEDEPTH
 70
  3020
  9
$CMLSTYLE
  2
STANDARD
  9
$CMLJUST
 70
     0
  9
$CMLSCALE
 40
1.0
  9
$PROXYGRAPHICS
 70
     1
  9
$MEASUREMENT
 70
     0
  9
$CELWEIGHT
370
    -1
  9
$ENDCAPS
280
     0
  9
$JOINSTYLE
280
     0
  9
$LWDISPLAY
290
     0
  9
$INSUNITS
 70
     0
  9
$HYPERLINKBASE
  1

  9
$STYLESHEET
  1
Sugino.ctb
  9
$XEDIT
290
     1
  9
$CEPSNTYPE
380
     0
  9
$PSTYLEMODE
290
     1
  9
$FINGERPRINTGUID
  2
{2FE35352-1FA2-11D5-8223-0001031A5E97}
  9
$VERSIONGUID
  2
{1A714056-CCAC-4F57-BE10-3C463F506D18}
  9
$EXTNAMES
290
     1
  9
$PSVPSCALE
 40
0.0
  9
$OLESTARTUP
290
     0
  9
$SORTENTS
280
   127
  9
$INDEXCTL
280
     0
  9
$HIDETEXT
280
     0
  9
$XCLIPFRAME
290
     0
  9
$HALOGAP
280
     0
  9
$OBSCOLOR
 70
   257
  9
$OBSLTYPE
280
     0
  9
$INTERSECTIONDISPLAY
280
     0
  9
$INTERSECTIONCOLOR
 70
   257
  9
$DIMASSOC
280
     1
  9
$PROJECTNAME
  1

  9
$CAMERADISPLAY
290
     0
  9
$LENSLENGTH
 40
50.0
  9
$CAMERAHEIGHT
 40
0.0
  9
$STEPSPERSEC
 40
2.0
  9
$STEPSIZE
 40
6.0
  9
$3DDWFPREC
 40
2.0
  9
$PSOLWIDTH
 40
0.25
  9
$PSOLHEIGHT
 40
4.0
  9
$LOFTANG1
 40
1.570796326794896
  9
$LOFTANG2
 40
1.570796326794896
  9
$LOFTMAG1
 40
0.0
  9
$LOFTMAG2
 40
0.0
  9
$LOFTPARAM
 70
     7
  9
$LOFTNORMALS
280
     1
  9
$LATITUDE
 40
37.795
  9
$LONGITUDE
 40
-122.394
  9
$NORTHDIRECTION
 40
0.0
  9
$TIMEZONE
 70
 -8000
  9
$LIGHTGLYPHDISPLAY
280
     1
  9
$TILEMODELIGHTSYNCH
280
     1
  9
$CMATERIAL
347
164F
  9
$SOLIDHIST
280
     1
  9
$SHOWHIST
280
     1
  9
$DWFFRAME
280
     2
  9
$DGNFRAME
280
     0
  9
$REALWORLDSCALE
290
     1
  9
$INTERFERECOLOR
 62
     1
  9
$INTERFEREOBJVS
345
165C
  9
$INTERFEREVPVS
346
1659
  9
$CSHADOW
280
     0
  9
$SHADOWPLANELOCATION
 40
0.0
  0
ENDSEC
  0
SECTION
  2
CLASSES
  0
CLASS
  1
DICTIONARYVAR
  2
AcDbDictionaryVar
  3
ObjectDBX Classes
 90
        0
 91
        2
280
     0
281
     0
  0
CLASS
  1
ACDBDICTIONARYWDFLT
  2
AcDbDictionaryWithDefault
  3
ObjectDBX Classes
 90
        0
 91
        1
280
     0
281
     0
  0
CLASS
  1
MATERIAL
  2
AcDbMaterial
  3
ObjectDBX Classes
 90
     1024
 91
        3
280
     0
281
     0
  0
CLASS
  1
VISUALSTYLE
  2
AcDbVisualStyle
  3
ObjectDBX Classes
 90
     4095
 91
       16
280
     0
281
     0
  0
CLASS
  1
TABLESTYLE
  2
AcDbTableStyle
  3
ObjectDBX Classes
 90
     4095
 91
        1
280
     0
281
     0
  0
ENDSEC
  0
SECTION
  2
TABLES
  0
TABLE
  2
VPORT
  5
1585
330
0
100
AcDbSymbolTable
 70
     1
  0
VPORT
  5
164C
330
1585
100
AcDbSymbolTableRecord
100
AcDbViewportTableRecord
  2
*Active
 70
     0
 10
0.0
 20
0.0
 11
1.0
 21
1.0
 12
-82.25302331417788
 22
153.1726039645347
 13
0.0
 23
0.0
 14
6.349999904632568
 24
6.349999904632568
 15
6.349999904632568
 25
6.349999904632568
 16
0.0
 26
0.0
 36
1.0
 17
0.0
 27
0.0
 37
0.0
 40
1832.75600847357
 41
1.787430683918669
 42
50.0
 43
0.0
 44
0.0
 50
0.0
 51
0.0
 71
     0
 72
   100
 73
     1
 74
     1
 75
     0
 76
     0
 77
     0
 78
     0
281
     0
 65
     1
110
0.0
120
0.0
130
0.0
111
1.0
121
0.0
131
0.0
112
0.0
122
1.0
132
0.0
 79
     0
146
0.0
348
1658
 60
     3
 61
     5
292
     1
282
     1
141
0.0
142
0.0
 63
   250
421
  3355443
  0
ENDTAB
  0
TABLE
  2
LTYPE
  5
1582
330
0
100
AcDbSymbolTable
 70
     5
  0
LTYPE
  5
158E
330
1582
100
AcDbSymbolTableRecord
100
AcDbLinetypeTableRecord
  2
BYBLOCK
 70
     0
  3

 72
    65
 73
     0
 40
0.0
  0
LTYPE
  5
158F
330
1582
100
AcDbSymbolTableRecord
100
AcDbLinetypeTableRecord
  2
BYLAYER
 70
     0
  3

 72
    65
 73
     0
 40
0.0
  0
LTYPE
  5
1590
330
1582
100
AcDbSymbolTableRecord
100
AcDbLinetypeTableRecord
  2
CONTINUOUS
 70
     0
  3
Style 1 Solid Line
 72
    65
 73
     0
 40
0.0
  0
LTYPE
  5
15EF
330
1582
100
AcDbSymbolTableRecord
100
AcDbLinetypeTableRecord
  2
PHANTOM
 70
     0
  3
Style 1 Phantom Line
 72
    65
 73
     6
 40
1.0
 49
0.5
 74
     0
 49
-0.1
 74
     0
 49
0.1
 74
     0
 49
-0.1
 74
     0
 49
0.1
 74
     0
 49
-0.1
 74
     0
  0
LTYPE
  5
15F0
330
1582
100
AcDbSymbolTableRecord
100
AcDbLinetypeTableRecord
  2
PHANTOMX2
 70
     0
  3
Phantom (2x) ____________    ____    ____   _
 72
    65
 73
     6
 40
5.0
 49
2.5
 74
     0
 49
-0.5
 74
     0
 49
0.5
 74
     0
 49
-0.5
 74
     0
 49
0.5
 74
     0
 49
-0.5
 74
     0
  0
LTYPE
  5
15F1
330
1582
100
AcDbSymbolTableRecord
100
AcDbLinetypeTableRecord
  2
CENTERX2
 70
     0
  3
Center (2x) ________  __  ________  __  _____
 72
    65
 73
     4
 40
4.0
 49
2.5
 74
     0
 49
-0.5
 74
     0
 49
0.5
 74
     0
 49
-0.5
 74
     0
  0
LTYPE
  5
15F2
330
1582
100
AcDbSymbolTableRecord
100
AcDbLinetypeTableRecord
  2
DASHEDX2
 70
     0
  3
Dashed (2x) ____  ____  ____  ____  ____  ___
 72
    65
 73
     2
 40
1.5
 49
1.0
 74
     0
 49
-0.5
 74
     0
  0
ENDTAB
  0
TABLE
  2
LAYER
  5
157F
330
0
100
AcDbSymbolTable
 70
     9
  0
LAYER
  5
158B
330
157F
100
AcDbSymbolTableRecord
100
AcDbLayerTableRecord
  2
0
 70
     0
 62
     7
  6
CONTINUOUS
370
    -3
390
160C
347
1651
  0
LAYER
  5
15F6
330
157F
100
AcDbSymbolTableRecord
100
AcDbLayerTableRecord
  2
01_VIEW_PV
 70
     0
 62
     7
  6
CONTINUOUS
370
    -3
390
160C
347
1651
  0
LAYER
  5
15F7
330
157F
100
AcDbSymbolTableRecord
100
AcDbLayerTableRecord
  2
CENTER
 70
     0
 62
     2
  6
CENTERX2
370
    -3
390
160C
347
1651
  0
LAYER
  5
15F8
330
157F
100
AcDbSymbolTableRecord
100
AcDbLayerTableRecord
  2
DASH
 70
     0
 62
     3
  6
DASHEDX2
370
    -3
390
160C
347
1651
  0
LAYER
  5
15F9
330
157F
100
AcDbSymbolTableRecord
100
AcDbLayerTableRecord
  2
DIM
 70
     0
 62
     1
  6
CONTINUOUS
370
    -3
390
160C
347
1651
  0
LAYER
  5
15FA
330
157F
100
AcDbSymbolTableRecord
100
AcDbLayerTableRecord
  2
PHANTOM
 70
     0
 62
     4
  6
PHANTOMX2
370
    -3
390
160C
347
1651
  0
LAYER
  5
15FB
330
157F
100
AcDbSymbolTableRecord
100
AcDbLayerTableRecord
  2
DEFPOINTS
 70
     0
 62
     7
  6
CONTINUOUS
290
     0
370
    -3
390
160C
347
1651
  0
LAYER
  5
15FC
330
157F
100
AcDbSymbolTableRecord
100
AcDbLayerTableRecord
  2
NOSE
 70
     0
 62
     7
  6
CONTINUOUS
370
    -3
390
160C
347
1651
  0
LAYER
  5
15FD
330
157F
100
AcDbSymbolTableRecord
100
AcDbLayerTableRecord
  2
SN7U-6
 70
     0
 62
     5
  6
PHANTOMX2
370
    -3
390
160C
347
1651
  0
ENDTAB
  0
TABLE
  2
STYLE
  5
1580
330
0
100
AcDbSymbolTable
 70
     2
  0
STYLE
  5
158C
330
1580
100
AcDbSymbolTableRecord
100
AcDbTextStyleTableRecord
  2
STANDARD
 70
     0
 40
4.167200137414932
 41
1.0
 50
0.0
 71
     0
 42
4.167200137414932
  3
romans.shx
  4

  0
STYLE
  5
15EC
330
1580
100
AcDbSymbolTableRecord
100
AcDbTextStyleTableRecord
  2
ROMANS
 70
     0
 40
4.16720013741493
 41
1.0
 50
0.0
 71
     0
 42
4.16720013741493
  3
romans.shx
  4

  0
ENDTAB
  0
TABLE
  2
VIEW
  5
1583
330
0
100
AcDbSymbolTable
 70
     0
  0
ENDTAB
  0
TABLE
  2
UCS
  5
1584
330
0
100
AcDbSymbolTable
 70
     0
  0
ENDTAB
  0
TABLE
  2
APPID
  5
1586
330
0
100
AcDbSymbolTable
 70
     1
  0
APPID
  5
158D
330
1586
100
AcDbSymbolTableRecord
100
AcDbRegAppTableRecord
  2
ACAD
 70
     0
  0
ENDTAB
  0
TABLE
  2
DIMSTYLE
  5
1587
330
0
100
AcDbSymbolTable
 70
     1
100
AcDbDimStyleTable
 71
     0
  0
DIMSTYLE
105
15F4
102
{ACAD_REACTORS
330
951
330
A04
330
A07
330
A18
330
A19
330
A1F
330
A23
330
A24
330
F4D
330
F73
330
F81
330
F8F
330
F9D
330
FAB
330
FB9
330
FC7
330
FD5
330
FE3
330
FF1
330
1017
330
1025
330
1033
330
1041
330
104F
330
105D
330
1085
330
10A1
330
10AF
330
10CB
330
10DB
330
1109
330
1123
330
1157
330
11C9
330
11D7
330
129E
330
12BA
330
12D4
330
132C
330
1380
330
138E
102
}
330
1587
100
AcDbSymbolTableRecord
100
AcDbDimStyleTableRecord
  2
STANDARD
 70
     0
274
     0
279
     2
340
158C
  0
ENDTAB
  0
TABLE
  2
BLOCK_RECORD
  5
157E
330
0
100
AcDbSymbolTable
 70
    41
  0
BLOCK_RECORD
  5
1594
102
{ACAD_XDICTIONARY
360
163B
102
}
330
157E
100
AcDbSymbolTableRecord
100
AcDbBlockTableRecord
  2
*MODEL_SPACE
340
160F
 70
     0
280
     1
281
     0
  0
BLOCK_RECORD
  5
1591
102
{ACAD_XDICTIONARY
360
1639
102
}
330
157E
100
AcDbSymbolTableRecord
100
AcDbBlockTableRecord
  2
*PAPER_SPACE
340
1610
 70
     0
280
     1
281
     0
  0
BLOCK_RECORD
  5
15BF
330
157E
100
AcDbSymbolTableRecord
100
AcDbBlockTableRecord
  2
*D0
340
0
 70
     0
280
     1
281
     0
  0
BLOCK_RECORD
  5
15C0
330
157E
100
AcDbSymbolTableRecord
100
AcDbBlockTableRecord
  2
*D1
340
0
 70
     0
280
     1
281
     0
  0
BLOCK_RECORD
  5
15C1
330
157E
100
AcDbSymbolTableRecord
100
AcDbBlockTableRecord
  2
*D2
340
0
 70
     0
280
     1
281
     0
  0
BLOCK_RECORD
  5
15C2
330
157E
100
AcDbSymbolTableRecord
100
AcDbBlockTableRecord
  2
*D3
340
0
 70
     0
280
     1
281
     0
  0
BLOCK_RECORD
  5
15C3
330
157E
100
AcDbSymbolTableRecord
100
AcDbBlockTableRecord
  2
*D4
340
0
 70
     0
280
     1
281
     0
  0
BLOCK_RECORD
  5
15C4
330
157E
100
AcDbSymbolTableRecord
100
AcDbBlockTableRecord
  2
*D5
340
0
 70
     0
280
     1
281
     0
  0
BLOCK_RECORD
  5
15C5
330
157E
100
AcDbSymbolTableRecord
100
AcDbBlockTableRecord
  2
*D6
340
0
 70
     0
280
     1
281
     0
  0
BLOCK_RECORD
  5
15C6
330
157E
100
AcDbSymbolTableRecord
100
AcDbBlockTableRecord
  2
*D7
340
0
 70
     0
280
     1
281
     0
  0
BLOCK_RECORD
  5
15C7
330
157E
100
AcDbSymbolTableRecord
100
AcDbBlockTableRecord
  2
*D8
340
0
 70
     0
280
     1
281
     0
  0
BLOCK_RECORD
  5
15C8
330
157E
100
AcDbSymbolTableRecord
100
AcDbBlockTableRecord
  2
*D9
340
0
 70
     0
280
     1
281
     0
  0
BLOCK_RECORD
  5
15C9
330
157E
100
AcDbSymbolTableRecord
100
AcDbBlockTableRecord
  2
*D10
340
0
 70
     0
280
     1
281
     0
  0
BLOCK_RECORD
  5
15CA
330
157E
100
AcDbSymbolTableRecord
100
AcDbBlockTableRecord
  2
*D11
340
0
 70
     0
280
     1
281
     0
  0
BLOCK_RECORD
  5
15CB
330
157E
100
AcDbSymbolTableRecord
100
AcDbBlockTableRecord
  2
*D12
340
0
 70
     0
280
     1
281
     0
  0
BLOCK_RECORD
  5
15CC
330
157E
100
AcDbSymbolTableRecord
100
AcDbBlockTableRecord
  2
*D13
340
0
 70
     0
280
     1
281
     0
  0
BLOCK_RECORD
  5
15CD
330
157E
100
AcDbSymbolTableRecord
100
AcDbBlockTableRecord
  2
*D14
340
0
 70
     0
280
     1
281
     0
  0
BLOCK_RECORD
  5
15CE
330
157E
100
AcDbSymbolTableRecord
100
AcDbBlockTableRecord
  2
*D15
340
0
 70
     0
280
     1
281
     0
  0
BLOCK_RECORD
  5
15CF
330
157E
100
AcDbSymbolTableRecord
100
AcDbBlockTableRecord
  2
*D16
340
0
 70
     0
280
     1
281
     0
  0
BLOCK_RECORD
  5
15D0
330
157E
100
AcDbSymbolTableRecord
100
AcDbBlockTableRecord
  2
*D17
340
0
 70
     0
280
     1
281
     0
  0
BLOCK_RECORD
  5
15D1
330
157E
100
AcDbSymbolTableRecord
100
AcDbBlockTableRecord
  2
*D18
340
0
 70
     0
280
     1
281
     0
  0
BLOCK_RECORD
  5
15D2
330
157E
100
AcDbSymbolTableRecord
100
AcDbBlockTableRecord
  2
*D19
340
0
 70
     0
280
     1
281
     0
  0
BLOCK_RECORD
  5
15D3
330
157E
100
AcDbSymbolTableRecord
100
AcDbBlockTableRecord
  2
*D20
340
0
 70
     0
280
     1
281
     0
  0
BLOCK_RECORD
  5
15D4
330
157E
100
AcDbSymbolTableRecord
100
AcDbBlockTableRecord
  2
*D21
340
0
 70
     0
280
     1
281
     0
  0
BLOCK_RECORD
  5
15D5
330
157E
100
AcDbSymbolTableRecord
100
AcDbBlockTableRecord
  2
*D22
340
0
 70
     0
280
     1
281
     0
  0
BLOCK_RECORD
  5
15D6
330
157E
100
AcDbSymbolTableRecord
100
AcDbBlockTableRecord
  2
*D23
340
0
 70
     0
280
     1
281
     0
  0
BLOCK_RECORD
  5
15D7
330
157E
100
AcDbSymbolTableRecord
100
AcDbBlockTableRecord
  2
*D24
340
0
 70
     0
280
     1
281
     0
  0
BLOCK_RECORD
  5
15D9
330
157E
100
AcDbSymbolTableRecord
100
AcDbBlockTableRecord
  2
*D25
340
0
 70
     0
280
     1
281
     0
  0
BLOCK_RECORD
  5
15DA
330
157E
100
AcDbSymbolTableRecord
100
AcDbBlockTableRecord
  2
*D26
340
0
 70
     0
280
     1
281
     0
  0
BLOCK_RECORD
  5
15DB
330
157E
100
AcDbSymbolTableRecord
100
AcDbBlockTableRecord
  2
*D27
340
0
 70
     0
280
     1
281
     0
  0
BLOCK_RECORD
  5
15DC
330
157E
100
AcDbSymbolTableRecord
100
AcDbBlockTableRecord
  2
*D28
340
0
 70
     0
280
     1
281
     0
  0
BLOCK_RECORD
  5
15DD
330
157E
100
AcDbSymbolTableRecord
100
AcDbBlockTableRecord
  2
*D29
340
0
 70
     0
280
     1
281
     0
  0
BLOCK_RECORD
  5
15DE
330
157E
100
AcDbSymbolTableRecord
100
AcDbBlockTableRecord
  2
*D30
340
0
 70
     0
280
     1
281
     0
  0
BLOCK_RECORD
  5
15DF
330
157E
100
AcDbSymbolTableRecord
100
AcDbBlockTableRecord
  2
*D31
340
0
 70
     0
280
     1
281
     0
  0
BLOCK_RECORD
  5
15E0
330
157E
100
AcDbSymbolTableRecord
100
AcDbBlockTableRecord
  2
*D32
340
0
 70
     0
280
     1
281
     0
  0
BLOCK_RECORD
  5
15E1
330
157E
100
AcDbSymbolTableRecord
100
AcDbBlockTableRecord
  2
*D33
340
0
 70
     0
280
     1
281
     0
  0
BLOCK_RECORD
  5
15E2
330
157E
100
AcDbSymbolTableRecord
100
AcDbBlockTableRecord
  2
*D34
340
0
 70
     0
280
     1
281
     0
  0
BLOCK_RECORD
  5
15E4
330
157E
100
AcDbSymbolTableRecord
100
AcDbBlockTableRecord
  2
*D35
340
0
 70
     0
280
     1
281
     0
  0
BLOCK_RECORD
  5
15E5
330
157E
100
AcDbSymbolTableRecord
100
AcDbBlockTableRecord
  2
*D36
340
0
 70
     0
280
     1
281
     0
  0
BLOCK_RECORD
  5
15E6
330
157E
100
AcDbSymbolTableRecord
100
AcDbBlockTableRecord
  2
*D37
340
0
 70
     0
280
     1
281
     0
  0
BLOCK_RECORD
  5
15E7
330
157E
100
AcDbSymbolTableRecord
100
AcDbBlockTableRecord
  2
*D38
340
0
 70
     0
280
     1
281
     0
  0
BLOCK_RECORD
  5
15E8
330
157E
100
AcDbSymbolTableRecord
100
AcDbBlockTableRecord
  2
*D39
340
0
 70
     0
280
     1
281
     0
  0
BLOCK_RECORD
  5
15E9
330
157E
100
AcDbSymbolTableRecord
100
AcDbBlockTableRecord
  2
*D40
340
0
 70
     0
280
     1
281
     0
  0
ENDTAB
  0
ENDSEC
  0
SECTION
  2
BLOCKS
  0
BLOCK
  5
1601
330
1594
100
AcDbEntity
  8
0
100
AcDbBlockBegin
  2
*MODEL_SPACE
 70
     0
 10
0.0
 20
0.0
 30
0.0
  3
*MODEL_SPACE
  1

  0
ENDBLK
  5
1602
330
1594
100
AcDbEntity
  8
0
100
AcDbBlockEnd
  0
BLOCK
  5
15FF
330
1591
100
AcDbEntity
 67
     1
  8
0
100
AcDbBlockBegin
  2
*PAPER_SPACE
 70
     0
 10
0.0
 20
0.0
 30
0.0
  3
*PAPER_SPACE
  1

  0
ENDBLK
  5
1600
330
1591
100
AcDbEntity
 67
     1
  8
0
100
AcDbBlockEnd
  0
BLOCK
  5
F4E
330
15BF
100
AcDbEntity
  8
0
100
AcDbBlockBegin
  2
*D0
 70
     1
 10
0.0
 20
0.0
 30
0.0
  3
*D0
  1

  0
LINE
  5
F4F
330
15BF
100
AcDbEntity
  8
0
  6
ByBlock
 62
     0
100
AcDbLine
 10
-959.9999999999997
 20
-1003.181661057382
 30
0.0
 11
-959.9999999999997
 21
-1040.923480365308
 31
0.0
  0
LINE
  5
F50
330
15BF
100
AcDbEntity
  8
0
  6
ByBlock
 62
     0
100
AcDbLine
 10
-1030.0
 20
-971.1816610573819
 30
0.0
 11
-1030.0
 21
-1040.923480365308
 31
0.0
  0
LINE
  5
F51
330
15BF
100
AcDbEntity
  8
0
  6
ByBlock
 62
     0
100
AcDbLine
 10
-962.9999999999997
 20
-1040.743480365307
 30
0.0
 11
-979.9870398594681
 21
-1040.743480365307
 31
0.0
  0
LINE
  5
F52
330
15BF
100
AcDbEntity
  8
0
  6
ByBlock
 62
     0
100
AcDbLine
 10
-1027.0
 20
-1040.743480365307
 30
0.0
 11
-1010.131193228499
 21
-1040.743480365307
 31
0.0
  0
SOLID
  5
F53
330
15BF
100
AcDbEntity
  8
0
  6
ByBlock
 62
     0
100
AcDbTrace
 10
-962.9999999999997
 20
-1040.243480365308
 30
0.0
 11
-962.9999999999997
 21
-1041.243480365308
 31
0.0
 12
-959.9999999999997
 22
-1040.743480365307
 32
0.0
 13
-959.9999999999997
 23
-1040.743480365307
 33
0.0
  0
SOLID
  5
F54
330
15BF
100
AcDbEntity
  8
0
  6
ByBlock
 62
     0
100
AcDbTrace
 10
-1027.0
 20
-1040.243480365308
 30
0.0
 11
-1027.0
 21
-1041.243480365308
 31
0.0
 12
-1030.0
 22
-1040.743480365307
 32
0.0
 13
-1030.0
 23
-1040.743480365307
 33
0.0
  0
TEXT
  5
F55
330
15BF
100
AcDbEntity
  8
0
  6
ByBlock
 62
     1
100
AcDbText
 10
-1010.636507533844
 20
-1042.132547077779
 30
0.0
 40
4.167200137414932
  1
2.76 [70]
100
AcDbText
  0
POINT
  5
F56
330
15BF
100
AcDbEntity
  8
DEFPOINTS
  6
ByBlock
 62
     0
100
AcDbPoint
 10
-959.9999999999997
 20
-1003.119161057382
 30
0.0
  0
POINT
  5
F57
330
15BF
100
AcDbEntity
  8
DEFPOINTS
  6
ByBlock
 62
     0
100
AcDbPoint
 10
-1030.0
 20
-971.1191610573818
 30
0.0
  0
POINT
  5
F58
330
15BF
100
AcDbEntity
  8
DEFPOINTS
  6
ByBlock
 62
     0
100
AcDbPoint
 10
-1030.0
 20
-1040.743480365307
 30
0.0
  0
ENDBLK
  5
F59
330
15BF
100
AcDbEntity
  8
0
100
AcDbBlockEnd
  0
BLOCK
  5
E2B
330
15C0
100
AcDbEntity
  8
0
100
AcDbBlockBegin
  2
*D1
 70
     1
 10
0.0
 20
0.0
 30
0.0
  3
*D1
  1

  0
LINE
  5
E2C
330
15C0
100
AcDbEntity
  8
0
  6
ByBlock
 62
     0
100
AcDbLine
 10
-261.1688960990863
 20
-674.0279801935507
 30
0.0
 11
-325.3440995687155
 21
-674.0279801935507
 31
0.0
  0
LINE
  5
E2D
330
15C0
100
AcDbEntity
  8
0
  6
ByBlock
 62
     0
100
AcDbLine
 10
-261.1688960990865
 20
-633.1339801935508
 30
0.0
 11
-325.3440995687155
 21
-633.1339801935508
 31
0.0
  0
LINE
  5
E2E
330
15C0
100
AcDbEntity
  8
0
  6
ByBlock
 62
     0
100
AcDbLine
 10
-325.1640995687155
 20
-671.0279801935508
 30
0.0
 11
-325.1640995687155
 21
-636.1339801935507
 31
0.0
  0
LINE
  5
E2F
330
15C0
100
AcDbEntity
  8
0
  6
ByBlock
 62
     0
100
AcDbLine
 10
-325.1640995687155
 20
-633.1339801935508
 30
0.0
 11
-325.1640995687155
 21
-569.6823040103581
 31
0.0
  0
LINE
  5
E30
330
15C0
100
AcDbEntity
  8
0
  6
ByBlock
 62
     0
100
AcDbLine
 10
-325.1640995687155
 20
-569.6823040103581
 30
0.0
 11
-322.1640995687155
 21
-569.6823040103581
 31
0.0
  0
SOLID
  5
E31
330
15C0
100
AcDbEntity
  8
0
  6
ByBlock
 62
     0
100
AcDbTrace
 10
-325.6640995687155
 20
-671.0279801935508
 30
0.0
 11
-324.6640995687155
 21
-671.0279801935508
 31
0.0
 12
-325.1640995687155
 22
-674.0279801935507
 32
0.0
 13
-325.1640995687155
 23
-674.0279801935507
 33
0.0
  0
SOLID
  5
E32
330
15C0
100
AcDbEntity
  8
0
  6
ByBlock
 62
     0
100
AcDbTrace
 10
-325.6640995687155
 20
-636.1339801935507
 30
0.0
 11
-324.6640995687155
 21
-636.1339801935507
 31
0.0
 12
-325.1640995687155
 22
-633.1339801935508
 32
0.0
 13
-325.1640995687155
 23
-633.1339801935508
 33
0.0
  0
TEXT
  5
E33
330
15C0
100
AcDbEntity
  8
0
  6
ByBlock
 62
     1
100
AcDbText
 10
-316.6450517860787
 20
-568.2927706541224
 30
0.0
 40
4.167200137414932
  1
1.610
100
AcDbText
  0
TEXT
  5
1557
330
15C0
100
AcDbEntity
  8
0
  6
ByBlock
 62
     1
100
AcDbText
 10
-316.6450517860787
 20
-573.8490375040089
 30
0.0
 40
4.167200137414932
  1
1.608
100
AcDbText
1001
ACAD
1000
R13OBJECT
1002
{
1005
E33
1002
}
  0
TEXT
  5
1558
330
15C0
100
AcDbEntity
  8
0
  6
ByBlock
 62
     1
100
AcDbText
 10
-298.7856226257289
 20
-571.0709040790657
 30
0.0
 40
4.167200137414932
  1
DIA [%%c40.894
100
AcDbText
1001
ACAD
1000
R13OBJECT
1002
{
1005
E33
1002
}
  0
TEXT
  5
1559
330
15C0
100
AcDbEntity
  8
0
  6
ByBlock
 62
     1
100
AcDbText
 10
-257.2961355307504
 20
-568.6539706770248
 30
0.0
 40
2.0
  1
-0
100
AcDbText
1001
ACAD
1000
R13OBJECT
1002
{
1005
E33
1002
}
  0
TEXT
  5
155A
330
15C0
100
AcDbEntity
  8
0
  6
ByBlock
 62
     1
100
AcDbText
 10
-257.2961355307504
 20
-571.3206373436914
 30
0.0
 40
2.0
  1
-0.050
100
AcDbText
1001
ACAD
1000
R13OBJECT
1002
{
1005
E33
1002
}
  0
TEXT
  5
155B
330
15C0
100
AcDbEntity
  8
0
  6
ByBlock
 62
     1
100
AcDbText
 10
-246.2485164831313
 20
-571.0723040103581
 30
0.0
 40
4.169999999999999
  1
]
100
AcDbText
1001
ACAD
1000
R13OBJECT
1002
{
1005
E33
1002
}
  0
POINT
  5
E34
330
15C0
100
AcDbEntity
  8
DEFPOINTS
  6
ByBlock
 62
     0
100
AcDbPoint
 10
-261.1063960990863
 20
-674.0279801935507
 30
0.0
  0
POINT
  5
E35
330
15C0
100
AcDbEntity
  8
DEFPOINTS
  6
ByBlock
 62
     0
100
AcDbPoint
 10
-261.1063960990865
 20
-633.1339801935508
 30
0.0
  0
POINT
  5
E36
330
15C0
100
AcDbEntity
  8
DEFPOINTS
  6
ByBlock
 62
     0
100
AcDbPoint
 10
-325.1640995687155
 20
-633.1339801935508
 30
0.0
  0
ENDBLK
  5
E37
330
15C0
100
AcDbEntity
  8
0
100
AcDbBlockEnd
  0
BLOCK
  5
E38
330
15C1
100
AcDbEntity
  8
0
100
AcDbBlockBegin
  2
*D2
 70
     1
 10
0.0
 20
0.0
 30
0.0
  3
*D2
  1

  0
LINE
  5
E39
330
15C1
100
AcDbEntity
  8
0
  6
ByBlock
 62
     0
100
AcDbLine
 10
-264.640648213854
 20
-669.8469524039738
 30
0.0
 11
-264.640648213854
 21
-713.1691242852395
 31
0.0
  0
LINE
  5
E3A
330
15C1
100
AcDbEntity
  8
0
  6
ByBlock
 62
     0
100
AcDbLine
 10
-224.9406482138539
 20
-673.380111756544
 30
0.0
 11
-224.9406482138539
 21
-713.1691242852395
 31
0.0
  0
LINE
  5
E3B
330
15C1
100
AcDbEntity
  8
0
  6
ByBlock
 62
     0
100
AcDbLine
 10
-227.940648213854
 20
-712.9891242852395
 30
0.0
 11
-261.640648213854
 21
-712.9891242852395
 31
0.0
  0
LINE
  5
E3C
330
15C1
100
AcDbEntity
  8
0
  6
ByBlock
 62
     0
100
AcDbLine
 10
-264.640648213854
 20
-712.9891242852395
 30
0.0
 11
-267.640648213854
 21
-712.9891242852395
 31
0.0
  0
SOLID
  5
E3D
330
15C1
100
AcDbEntity
  8
0
  6
ByBlock
 62
     0
100
AcDbTrace
 10
-227.940648213854
 20
-712.4891242852395
 30
0.0
 11
-227.940648213854
 21
-713.4891242852395
 31
0.0
 12
-224.9406482138539
 22
-712.9891242852395
 32
0.0
 13
-224.9406482138539
 23
-712.9891242852395
 33
0.0
  0
SOLID
  5
E3E
330
15C1
100
AcDbEntity
  8
0
  6
ByBlock
 62
     0
100
AcDbTrace
 10
-261.640648213854
 20
-712.4891242852395
 30
0.0
 11
-261.640648213854
 21
-713.4891242852395
 31
0.0
 12
-264.640648213854
 22
-712.9891242852395
 32
0.0
 13
-264.640648213854
 23
-712.9891242852395
 33
0.0
  0
TEXT
  5
E3F
330
15C1
100
AcDbEntity
  8
0
  6
ByBlock
 62
     1
100
AcDbText
 10
-328.0558311554797
 20
-711.6000575727679
 30
0.0
 40
4.167200137414932
  1
1.582
100
AcDbText
  0
TEXT
  5
155C
330
15C1
100
AcDbEntity
  8
0
  6
ByBlock
 62
     1
100
AcDbText
 10
-328.0558311554797
 20
-717.1563244226545
 30
0.0
 40
4.167200137414932
  1
1.542
100
AcDbText
1001
ACAD
1000
R13OBJECT
1002
{
1005
E3F
1002
}
  0
TEXT
  5
155D
330
15C1
100
AcDbEntity
  8
0
  6
ByBlock
 62
     1
100
AcDbText
 10
-310.1964019951299
 20
-714.3781909977112
 30
0.0
 40
4.167200137414932
  1
 [39.7%%p0.4]
100
AcDbText
1001
ACAD
1000
R13OBJECT
1002
{
1005
E3F
1002
}
  0
POINT
  5
E40
330
15C1
100
AcDbEntity
  8
DEFPOINTS
  6
ByBlock
 62
     0
100
AcDbPoint
 10
-264.640648213854
 20
-669.7844524039737
 30
0.0
  0
POINT
  5
E41
330
15C1
100
AcDbEntity
  8
DEFPOINTS
  6
ByBlock
 62
     0
100
AcDbPoint
 10
-224.9406482138539
 20
-673.317611756544
 30
0.0
  0
POINT
  5
E42
330
15C1
100
AcDbEntity
  8
DEFPOINTS
  6
ByBlock
 62
     0
100
AcDbPoint
 10
-224.9406482138539
 20
-712.9891242852395
 30
0.0
  0
ENDBLK
  5
E43
330
15C1
100
AcDbEntity
  8
0
100
AcDbBlockEnd
  0
BLOCK
  5
E44
330
15C2
100
AcDbEntity
  8
0
100
AcDbBlockBegin
  2
*D3
 70
     1
 10
0.0
 20
0.0
 30
0.0
  3
*D3
  1

  0
LINE
  5
E45
330
15C2
100
AcDbEntity
  8
0
  6
ByBlock
 62
     0
100
AcDbLine
 10
-425.6268887537195
 20
-667.0809801935506
 30
0.0
 11
-396.62003650246
 21
-667.0809801935506
 31
0.0
  0
LINE
  5
E46
330
15C2
100
AcDbEntity
  8
0
  6
ByBlock
 62
     0
100
AcDbLine
 10
-423.2268887537195
 20
-637.6809801935507
 30
0.0
 11
-396.62003650246
 21
-637.6809801935507
 31
0.0
  0
LINE
  5
E47
330
15C2
100
AcDbEntity
  8
0
  6
ByBlock
 62
     0
100
AcDbLine
 10
-396.80003650246
 20
-664.0809801935506
 30
0.0
 11
-396.80003650246
 21
-640.6809801935508
 31
0.0
  0
LINE
  5
E48
330
15C2
100
AcDbEntity
  8
0
  6
ByBlock
 62
     0
100
AcDbLine
 10
-396.80003650246
 20
-637.6809801935507
 30
0.0
 11
-396.80003650246
 21
-623.6725560771901
 31
0.0
  0
LINE
  5
E49
330
15C2
100
AcDbEntity
  8
0
  6
ByBlock
 62
     0
100
AcDbLine
 10
-396.80003650246
 20
-623.6725560771901
 30
0.0
 11
-393.80003650246
 21
-623.6725560771901
 31
0.0
  0
SOLID
  5
E4A
330
15C2
100
AcDbEntity
  8
0
  6
ByBlock
 62
     0
100
AcDbTrace
 10
-397.30003650246
 20
-664.0809801935506
 30
0.0
 11
-396.30003650246
 21
-664.0809801935506
 31
0.0
 12
-396.80003650246
 22
-667.0809801935506
 32
0.0
 13
-396.80003650246
 23
-667.0809801935506
 33
0.0
  0
SOLID
  5
E4B
330
15C2
100
AcDbEntity
  8
0
  6
ByBlock
 62
     0
100
AcDbTrace
 10
-397.30003650246
 20
-640.6809801935508
 30
0.0
 11
-396.30003650246
 21
-640.6809801935508
 31
0.0
 12
-396.80003650246
 22
-637.6809801935507
 32
0.0
 13
-396.80003650246
 23
-637.6809801935507
 33
0.0
  0
TEXT
  5
E4C
330
15C2
100
AcDbEntity
  8
0
  6
ByBlock
 62
     1
100
AcDbText
 10
-388.4754458659521
 20
-622.2830227209543
 30
0.0
 40
4.167200137414932
  1
1.1677
100
AcDbText
  0
TEXT
  5
155E
330
15C2
100
AcDbEntity
  8
0
  6
ByBlock
 62
     1
100
AcDbText
 10
-388.4754458659521
 20
-627.8392895708409
 30
0.0
 40
4.167200137414932
  1
1.1579
100
AcDbText
1001
ACAD
1000
R13OBJECT
1002
{
1005
E4C
1002
}
  0
TEXT
  5
155F
330
15C2
100
AcDbEntity
  8
0
  6
ByBlock
 62
     1
100
AcDbText
 10
-366.6472546699691
 20
-625.0611561458977
 30
0.0
 40
4.167200137414932
  1
DIA [%%c29.4
100
AcDbText
1001
ACAD
1000
R13OBJECT
1002
{
1005
E4C
1002
}
  0
TEXT
  5
1560
330
15C2
100
AcDbEntity
  8
0
  6
ByBlock
 62
     1
100
AcDbText
 10
-333.0952916462571
 20
-622.6442227438568
 30
0.0
 40
2.0
  1
+0.2
100
AcDbText
1001
ACAD
1000
R13OBJECT
1002
{
1005
E4C
1002
}
  0
TEXT
  5
1561
330
15C2
100
AcDbEntity
  8
0
  6
ByBlock
 62
     1
100
AcDbText
 10
-333.0952916462571
 20
-625.3108894105235
 30
0.0
 40
2.0
  1
+0
100
AcDbText
1001
ACAD
1000
R13OBJECT
1002
{
1005
E4C
1002
}
  0
TEXT
  5
1562
330
15C2
100
AcDbEntity
  8
0
  6
ByBlock
 62
     1
100
AcDbText
 10
-325.8571964081618
 20
-625.0625560771901
 30
0.0
 40
4.169999999999999
  1
]
100
AcDbText
1001
ACAD
1000
R13OBJECT
1002
{
1005
E4C
1002
}
  0
POINT
  5
E4D
330
15C2
100
AcDbEntity
  8
DEFPOINTS
  6
ByBlock
 62
     0
100
AcDbPoint
 10
-425.6893887537195
 20
-667.0809801935506
 30
0.0
  0
POINT
  5
E4E
330
15C2
100
AcDbEntity
  8
DEFPOINTS
  6
ByBlock
 62
     0
100
AcDbPoint
 10
-423.2893887537195
 20
-637.6809801935507
 30
0.0
  0
POINT
  5
E4F
330
15C2
100
AcDbEntity
  8
DEFPOINTS
  6
ByBlock
 62
     0
100
AcDbPoint
 10
-396.80003650246
 20
-637.6809801935507
 30
0.0
  0
ENDBLK
  5
E50
330
15C2
100
AcDbEntity
  8
0
100
AcDbBlockEnd
  0
BLOCK
  5
12E3
330
15C3
100
AcDbEntity
  8
0
100
AcDbBlockBegin
  2
*D4
 70
     1
 10
0.0
 20
0.0
 30
0.0
  3
*D4
  1

  0
LINE
  5
12E4
330
15C3
100
AcDbEntity
  8
0
  6
ByBlock
 62
     0
100
AcDbLine
 10
-1203.448740539865
 20
-935.6566610573819
 30
0.0
 11
-1203.448740539865
 21
-909.1276429434122
 31
0.0
  0
LINE
  5
12E5
330
15C3
100
AcDbEntity
  8
0
  6
ByBlock
 62
     0
100
AcDbLine
 10
-1198.648740539865
 20
-935.6566610573819
 30
0.0
 11
-1198.648740539865
 21
-909.1276429434122
 31
0.0
  0
LINE
  5
12E6
330
15C3
100
AcDbEntity
  8
0
  6
ByBlock
 62
     0
100
AcDbLine
 10
-1206.448740539866
 20
-909.3076429434121
 30
0.0
 11
-1209.448740539865
 21
-909.3076429434121
 31
0.0
  0
LINE
  5
12E7
330
15C3
100
AcDbEntity
  8
0
  6
ByBlock
 62
     0
100
AcDbLine
 10
-1195.648740539865
 20
-909.3076429434121
 30
0.0
 11
-1192.648740539865
 21
-909.3076429434121
 31
0.0
  0
LINE
  5
12E8
330
15C3
100
AcDbEntity
  8
0
  6
ByBlock
 62
     0
100
AcDbLine
 10
-1203.448740539865
 20
-909.3076429434121
 30
0.0
 11
-1198.648740539865
 21
-909.3076429434121
 31
0.0
  0
SOLID
  5
12E9
330
15C3
100
AcDbEntity
  8
0
  6
ByBlock
 62
     0
100
AcDbTrace
 10
-1206.448740539866
 20
-908.8076429434122
 30
0.0
 11
-1206.448740539866
 21
-909.8076429434122
 31
0.0
 12
-1203.448740539865
 22
-909.3076429434121
 32
0.0
 13
-1203.448740539865
 23
-909.3076429434121
 33
0.0
  0
SOLID
  5
12EA
330
15C3
100
AcDbEntity
  8
0
  6
ByBlock
 62
     0
100
AcDbTrace
 10
-1195.648740539865
 20
-908.8076429434122
 30
0.0
 11
-1195.648740539865
 21
-909.8076429434122
 31
0.0
 12
-1198.648740539865
 22
-909.3076429434121
 32
0.0
 13
-1198.648740539865
 23
-909.3076429434121
 33
0.0
  0
TEXT
  5
12EB
330
15C3
100
AcDbEntity
  8
0
  6
ByBlock
 62
     1
100
AcDbText
 10
-1193.352492946992
 20
-907.9181095871764
 30
0.0
 40
4.167200137414932
  1
.1955
100
AcDbText
  0
TEXT
  5
1563
330
15C3
100
AcDbEntity
  8
0
  6
ByBlock
 62
     1
100
AcDbText
 10
-1193.352492946992
 20
-913.4743764370631
 30
0.0
 40
4.167200137414932
  1
.1915
100
AcDbText
1001
ACAD
1000
R13OBJECT
1002
{
1005
12EB
1002
}
  0
TEXT
  5
1564
330
15C3
100
AcDbEntity
  8
0
  6
ByBlock
 62
     1
100
AcDbText
 10
-1175.493063786642
 20
-910.6962430121198
 30
0.0
 40
4.167200137414932
  1
 [4.86
100
AcDbText
1001
ACAD
1000
R13OBJECT
1002
{
1005
12EB
1002
}
  0
TEXT
  5
1565
330
15C3
100
AcDbEntity
  8
0
  6
ByBlock
 62
     1
100
AcDbText
 10
-1155.03801548052
 20
-908.279309610079
 30
0.0
 40
2.0
  1
+0.1
100
AcDbText
1001
ACAD
1000
R13OBJECT
1002
{
1005
12EB
1002
}
  0
TEXT
  5
1566
330
15C3
100
AcDbEntity
  8
0
  6
ByBlock
 62
     1
100
AcDbText
 10
-1155.03801548052
 20
-910.9459762767455
 30
0.0
 40
2.0
  1
+0
100
AcDbText
1001
ACAD
1000
R13OBJECT
1002
{
1005
12EB
1002
}
  0
TEXT
  5
1567
330
15C3
100
AcDbEntity
  8
0
  6
ByBlock
 62
     1
100
AcDbText
 10
-1148.371348813853
 20
-910.6976429434123
 30
0.0
 40
4.169999999999999
  1
]
100
AcDbText
1001
ACAD
1000
R13OBJECT
1002
{
1005
12EB
1002
}
  0
POINT
  5
12EC
330
15C3
100
AcDbEntity
  8
DEFPOINTS
  6
ByBlock
 62
     0
100
AcDbPoint
 10
-1203.448740539865
 20
-935.7191610573821
 30
0.0
  0
POINT
  5
12ED
330
15C3
100
AcDbEntity
  8
DEFPOINTS
  6
ByBlock
 62
     0
100
AcDbPoint
 10
-1198.648740539865
 20
-935.7191610573821
 30
0.0
  0
POINT
  5
12EE
330
15C3
100
AcDbEntity
  8
DEFPOINTS
  6
ByBlock
 62
     0
100
AcDbPoint
 10
-1198.648740539865
 20
-909.3076429434121
 30
0.0
  0
ENDBLK
  5
12EF
330
15C3
100
AcDbEntity
  8
0
100
AcDbBlockEnd
  0
BLOCK
  5
1216
330
15C4
100
AcDbEntity
  8
0
100
AcDbBlockBegin
  2
*D5
 70
     1
 10
0.0
 20
0.0
 30
0.0
  3
*D5
  1

  0
LINE
  5
1217
330
15C4
100
AcDbEntity
  8
0
  6
ByBlock
 62
     0
100
AcDbLine
 10
-945.9374999999999
 20
-899.1191610573819
 30
0.0
 11
-922.9409453857861
 21
-899.1191610573819
 31
0.0
  0
LINE
  5
1218
330
15C4
100
AcDbEntity
  8
0
  6
ByBlock
 62
     0
100
AcDbLine
 10
-945.9374999999999
 20
-1004.119161057382
 30
0.0
 11
-922.9409453857863
 21
-1004.119161057382
 31
0.0
  0
LINE
  5
1219
330
15C4
100
AcDbEntity
  8
0
  6
ByBlock
 62
     0
100
AcDbLine
 10
-923.1209453857863
 20
-1001.119161057382
 30
0.0
 11
-923.1209453857861
 21
-902.119161057382
 31
0.0
  0
LINE
  5
121A
330
15C4
100
AcDbEntity
  8
0
  6
ByBlock
 62
     0
100
AcDbLine
 10
-923.1209453857861
 20
-899.1191610573819
 30
0.0
 11
-923.1209453857861
 21
-861.3520710657612
 31
0.0
  0
LINE
  5
121B
330
15C4
100
AcDbEntity
  8
0
  6
ByBlock
 62
     0
100
AcDbLine
 10
-923.1209453857861
 20
-861.3520710657612
 30
0.0
 11
-920.1209453857861
 21
-861.3520710657612
 31
0.0
  0
SOLID
  5
121C
330
15C4
100
AcDbEntity
  8
0
  6
ByBlock
 62
     0
100
AcDbTrace
 10
-923.6209453857863
 20
-1001.119161057382
 30
0.0
 11
-922.6209453857862
 21
-1001.119161057382
 31
0.0
 12
-923.1209453857863
 22
-1004.119161057382
 32
0.0
 13
-923.1209453857863
 23
-1004.119161057382
 33
0.0
  0
SOLID
  5
121D
330
15C4
100
AcDbEntity
  8
0
  6
ByBlock
 62
     0
100
AcDbTrace
 10
-923.6209453857862
 20
-902.119161057382
 30
0.0
 11
-922.6209453857862
 21
-902.119161057382
 31
0.0
 12
-923.1209453857861
 22
-899.1191610573819
 32
0.0
 13
-923.1209453857861
 23
-899.1191610573819
 33
0.0
  0
TEXT
  5
121E
330
15C4
100
AcDbEntity
  8
0
  6
ByBlock
 62
     1
100
AcDbText
 10
-920.6262596911313
 20
-862.7411377782328
 30
0.0
 40
4.167200137414932
  1
4.13 [105]
100
AcDbText
  0
POINT
  5
121F
330
15C4
100
AcDbEntity
  8
DEFPOINTS
  6
ByBlock
 62
     0
100
AcDbPoint
 10
-946.0
 20
-899.1191610573819
 30
0.0
  0
POINT
  5
1220
330
15C4
100
AcDbEntity
  8
DEFPOINTS
  6
ByBlock
 62
     0
100
AcDbPoint
 10
-946.0
 20
-1004.119161057382
 30
0.0
  0
POINT
  5
1221
330
15C4
100
AcDbEntity
  8
DEFPOINTS
  6
ByBlock
 62
     0
100
AcDbPoint
 10
-923.1209453857863
 20
-1004.119161057382
 30
0.0
  0
ENDBLK
  5
1222
330
15C4
100
AcDbEntity
  8
0
100
AcDbBlockEnd
  0
BLOCK
  5
E6B
330
15C5
100
AcDbEntity
  8
0
100
AcDbBlockBegin
  2
*D6
 70
     1
 10
0.0
 20
0.0
 30
0.0
  3
*D6
  1

  0
LINE
  5
E6C
330
15C5
100
AcDbEntity
  8
0
  6
ByBlock
 62
     0
100
AcDbLine
 10
-264.640648213854
 20
-634.0184801935507
 30
0.0
 11
-264.640648213854
 21
-614.2935978786667
 31
0.0
  0
LINE
  5
E6D
330
15C5
100
AcDbEntity
  8
0
  6
ByBlock
 62
     0
100
AcDbLine
 10
-175.640648213854
 20
-636.5184801935506
 30
0.0
 11
-175.640648213854
 21
-614.2935978786667
 31
0.0
  0
LINE
  5
E6E
330
15C5
100
AcDbEntity
  8
0
  6
ByBlock
 62
     0
100
AcDbLine
 10
-261.640648213854
 20
-614.4735978786666
 30
0.0
 11
-252.6660588042651
 21
-614.4735978786666
 31
0.0
  0
LINE
  5
E6F
330
15C5
100
AcDbEntity
  8
0
  6
ByBlock
 62
     0
100
AcDbLine
 10
-178.640648213854
 20
-614.4735978786666
 30
0.0
 11
-217.7593909924739
 21
-614.4735978786666
 31
0.0
  0
SOLID
  5
E70
330
15C5
100
AcDbEntity
  8
0
  6
ByBlock
 62
     0
100
AcDbTrace
 10
-261.640648213854
 20
-613.9735978786666
 30
0.0
 11
-261.640648213854
 21
-614.9735978786666
 31
0.0
 12
-264.640648213854
 22
-614.4735978786666
 32
0.0
 13
-264.640648213854
 23
-614.4735978786666
 33
0.0
  0
SOLID
  5
E71
330
15C5
100
AcDbEntity
  8
0
  6
ByBlock
 62
     0
100
AcDbTrace
 10
-178.640648213854
 20
-613.9735978786666
 30
0.0
 11
-178.640648213854
 21
-614.9735978786666
 31
0.0
 12
-175.640648213854
 22
-614.4735978786666
 32
0.0
 13
-175.640648213854
 23
-614.4735978786666
 33
0.0
  0
TEXT
  5
E72
330
15C5
100
AcDbEntity
  8
0
  6
ByBlock
 62
     1
100
AcDbText
 10
-250.7901158882301
 20
-615.8626645911382
 30
0.0
 40
4.167200137414932
  1
3.50 [89]
100
AcDbText
  0
POINT
  5
E73
330
15C5
100
AcDbEntity
  8
DEFPOINTS
  6
ByBlock
 62
     0
100
AcDbPoint
 10
-264.640648213854
 20
-634.0809801935506
 30
0.0
  0
POINT
  5
E74
330
15C5
100
AcDbEntity
  8
DEFPOINTS
  6
ByBlock
 62
     0
100
AcDbPoint
 10
-175.640648213854
 20
-636.5809801935506
 30
0.0
  0
POINT
  5
E75
330
15C5
100
AcDbEntity
  8
DEFPOINTS
  6
ByBlock
 62
     0
100
AcDbPoint
 10
-175.640648213854
 20
-614.4735978786666
 30
0.0
  0
ENDBLK
  5
E76
330
15C5
100
AcDbEntity
  8
0
100
AcDbBlockEnd
  0
BLOCK
  5
E77
330
15C6
100
AcDbEntity
  8
0
100
AcDbBlockBegin
  2
*D7
 70
     1
 10
0.0
 20
0.0
 30
0.0
  3
*D7
  1

  0
LINE
  5
E78
330
15C6
100
AcDbEntity
  8
0
  6
ByBlock
 62
     0
100
AcDbLine
 10
-262.703148213854
 20
-640.1319801935507
 30
0.0
 11
-300.5409949037332
 21
-640.1319801935507
 31
0.0
  0
LINE
  5
E79
330
15C6
100
AcDbEntity
  8
0
  6
ByBlock
 62
     0
100
AcDbLine
 10
-262.703148213854
 20
-667.0299801935507
 30
0.0
 11
-300.5409949037332
 21
-667.0299801935507
 31
0.0
  0
LINE
  5
E7A
330
15C6
100
AcDbEntity
  8
0
  6
ByBlock
 62
     0
100
AcDbLine
 10
-300.3609949037332
 20
-664.0299801935507
 30
0.0
 11
-300.3609949037332
 21
-643.1319801935507
 31
0.0
  0
LINE
  5
E7B
330
15C6
100
AcDbEntity
  8
0
  6
ByBlock
 62
     0
100
AcDbLine
 10
-300.3609949037332
 20
-640.1319801935507
 30
0.0
 11
-300.3609949037332
 21
-591.1181380241568
 31
0.0
  0
LINE
  5
E7C
330
15C6
100
AcDbEntity
  8
0
  6
ByBlock
 62
     0
100
AcDbLine
 10
-300.3609949037332
 20
-591.1181380241568
 30
0.0
 11
-297.3609949037332
 21
-591.1181380241568
 31
0.0
  0
SOLID
  5
E7D
330
15C6
100
AcDbEntity
  8
0
  6
ByBlock
 62
     0
100
AcDbTrace
 10
-300.8609949037332
 20
-664.0299801935507
 30
0.0
 11
-299.8609949037332
 21
-664.0299801935507
 31
0.0
 12
-300.3609949037332
 22
-667.0299801935507
 32
0.0
 13
-300.3609949037332
 23
-667.0299801935507
 33
0.0
  0
SOLID
  5
E7E
330
15C6
100
AcDbEntity
  8
0
  6
ByBlock
 62
     0
100
AcDbTrace
 10
-300.8609949037332
 20
-643.1319801935507
 30
0.0
 11
-299.8609949037332
 21
-643.1319801935507
 31
0.0
 12
-300.3609949037332
 22
-640.1319801935507
 32
0.0
 13
-300.3609949037332
 23
-640.1319801935507
 33
0.0
  0
TEXT
  5
E7F
330
15C6
100
AcDbEntity
  8
0
  6
ByBlock
 62
     1
100
AcDbText
 10
-291.7427280702055
 20
-589.728604667921
 30
0.0
 40
4.167200137414932
  1
1.0630
100
AcDbText
  0
TEXT
  5
1568
330
15C6
100
AcDbEntity
  8
0
  6
ByBlock
 62
     1
100
AcDbText
 10
-291.7427280702055
 20
-595.2848715178077
 30
0.0
 40
4.167200137414932
  1
1.0625
100
AcDbText
1001
ACAD
1000
R13OBJECT
1002
{
1005
E7F
1002
}
  0
TEXT
  5
1569
330
15C6
100
AcDbEntity
  8
0
  6
ByBlock
 62
     1
100
AcDbText
 10
-269.9145368742225
 20
-592.5067380928644
 30
0.0
 40
4.167200137414932
  1
DIA [%%c26.998
100
AcDbText
1001
ACAD
1000
R13OBJECT
1002
{
1005
E7F
1002
}
  0
TEXT
  5
156A
330
15C6
100
AcDbEntity
  8
0
  6
ByBlock
 62
     1
100
AcDbText
 10
-228.4250497792438
 20
-590.0898046908236
 30
0.0
 40
2.0
  1
+0.012
100
AcDbText
1001
ACAD
1000
R13OBJECT
1002
{
1005
E7F
1002
}
  0
TEXT
  5
156B
330
15C6
100
AcDbEntity
  8
0
  6
ByBlock
 62
     1
100
AcDbText
 10
-228.4250497792438
 20
-592.7564713574902
 30
0.0
 40
2.0
  1
+0
100
AcDbText
1001
ACAD
1000
R13OBJECT
1002
{
1005
E7F
1002
}
  0
TEXT
  5
156C
330
15C6
100
AcDbEntity
  8
0
  6
ByBlock
 62
     1
100
AcDbText
 10
-217.3774307316248
 20
-592.5081380241569
 30
0.0
 40
4.169999999999999
  1
]
100
AcDbText
1001
ACAD
1000
R13OBJECT
1002
{
1005
E7F
1002
}
  0
POINT
  5
E80
330
15C6
100
AcDbEntity
  8
DEFPOINTS
  6
ByBlock
 62
     0
100
AcDbPoint
 10
-262.640648213854
 20
-640.1319801935507
 30
0.0
  0
POINT
  5
E81
330
15C6
100
AcDbEntity
  8
DEFPOINTS
  6
ByBlock
 62
     0
100
AcDbPoint
 10
-262.640648213854
 20
-667.0299801935507
 30
0.0
  0
POINT
  5
E82
330
15C6
100
AcDbEntity
  8
DEFPOINTS
  6
ByBlock
 62
     0
100
AcDbPoint
 10
-300.3609949037332
 20
-667.0299801935507
 30
0.0
  0
ENDBLK
  5
E83
330
15C6
100
AcDbEntity
  8
0
100
AcDbBlockEnd
  0
BLOCK
  5
134E
330
15C7
100
AcDbEntity
  8
0
100
AcDbBlockBegin
  2
*D8
 70
     1
 10
0.0
 20
0.0
 30
0.0
  3
*D8
  1

  0
LINE
  5
134F
330
15C7
100
AcDbEntity
  8
0
  6
ByBlock
 62
     0
100
AcDbLine
 10
-960.0
 20
-653.2441610573819
 30
0.0
 11
-960.0
 21
-690.9234803653077
 31
0.0
  0
LINE
  5
1350
330
15C7
100
AcDbEntity
  8
0
  6
ByBlock
 62
     0
100
AcDbLine
 10
-893.0000000000003
 20
-675.9814076403331
 30
0.0
 11
-893.0000000000003
 21
-690.9234803653077
 31
0.0
  0
LINE
  5
1351
330
15C7
100
AcDbEntity
  8
0
  6
ByBlock
 62
     0
100
AcDbLine
 10
-957.0
 20
-690.7434803653077
 30
0.0
 11
-941.9820766845155
 21
-690.7434803653077
 31
0.0
  0
LINE
  5
1352
330
15C7
100
AcDbEntity
  8
0
  6
ByBlock
 62
     0
100
AcDbLine
 10
-896.0000000000002
 20
-690.7434803653077
 30
0.0
 11
-911.0179233154843
 21
-690.7434803653077
 31
0.0
  0
SOLID
  5
1353
330
15C7
100
AcDbEntity
  8
0
  6
ByBlock
 62
     0
100
AcDbTrace
 10
-957.0
 20
-690.2434803653077
 30
0.0
 11
-957.0
 21
-691.2434803653077
 31
0.0
 12
-960.0
 22
-690.7434803653077
 32
0.0
 13
-960.0
 23
-690.7434803653077
 33
0.0
  0
SOLID
  5
1354
330
15C7
100
AcDbEntity
  8
0
  6
ByBlock
 62
     0
100
AcDbTrace
 10
-896.0000000000002
 20
-690.2434803653077
 30
0.0
 11
-896.0000000000002
 21
-691.2434803653077
 31
0.0
 12
-893.0000000000003
 22
-690.7434803653077
 32
0.0
 13
-893.0000000000003
 23
-690.7434803653077
 33
0.0
  0
TEXT
  5
1355
330
15C7
100
AcDbEntity
  8
0
  6
ByBlock
 62
     1
100
AcDbText
 10
-942.0773909898608
 20
-692.1325470777794
 30
0.0
 40
4.167200137414932
  1
2.64 [67]
100
AcDbText
  0
POINT
  5
1356
330
15C7
100
AcDbEntity
  8
DEFPOINTS
  6
ByBlock
 62
     0
100
AcDbPoint
 10
-960.0
 20
-653.1816610573819
 30
0.0
  0
POINT
  5
1357
330
15C7
100
AcDbEntity
  8
DEFPOINTS
  6
ByBlock
 62
     0
100
AcDbPoint
 10
-893.0000000000003
 20
-675.9189076403331
 30
0.0
  0
POINT
  5
1358
330
15C7
100
AcDbEntity
  8
DEFPOINTS
  6
ByBlock
 62
     0
100
AcDbPoint
 10
-893.0000000000003
 20
-690.7434803653077
 30
0.0
  0
ENDBLK
  5
1359
330
15C7
100
AcDbEntity
  8
0
100
AcDbBlockEnd
  0
BLOCK
  5
1366
330
15C8
100
AcDbEntity
  8
0
100
AcDbBlockBegin
  2
*D9
 70
     1
 10
0.0
 20
0.0
 30
0.0
  3
*D9
  1

  0
LINE
  5
1367
330
15C8
100
AcDbEntity
  8
0
  6
ByBlock
 62
     0
100
AcDbLine
 10
-1030.0
 20
-622.128661057382
 30
0.0
 11
-1030.0
 21
-709.3553311538332
 31
0.0
  0
LINE
  5
1368
330
15C8
100
AcDbEntity
  8
0
  6
ByBlock
 62
     0
100
AcDbLine
 10
-893.0000000000003
 20
-675.9814076403331
 30
0.0
 11
-893.0000000000003
 21
-709.3553311538332
 31
0.0
  0
LINE
  5
1369
330
15C8
100
AcDbEntity
  8
0
  6
ByBlock
 62
     0
100
AcDbLine
 10
-1027.0
 20
-709.1753311538332
 30
0.0
 11
-978.9664577023325
 21
-709.1753311538332
 31
0.0
  0
LINE
  5
136A
330
15C8
100
AcDbEntity
  8
0
  6
ByBlock
 62
     0
100
AcDbLine
 10
-896.0000000000002
 20
-709.1753311538332
 30
0.0
 11
-944.033542297668
 21
-709.1753311538332
 31
0.0
  0
SOLID
  5
136B
330
15C8
100
AcDbEntity
  8
0
  6
ByBlock
 62
     0
100
AcDbTrace
 10
-1027.0
 20
-708.6753311538331
 30
0.0
 11
-1027.0
 21
-709.6753311538332
 31
0.0
 12
-1030.0
 22
-709.1753311538332
 32
0.0
 13
-1030.0
 23
-709.1753311538332
 33
0.0
  0
SOLID
  5
136C
330
15C8
100
AcDbEntity
  8
0
  6
ByBlock
 62
     0
100
AcDbTrace
 10
-896.0000000000002
 20
-708.6753311538331
 30
0.0
 11
-896.0000000000002
 21
-709.6753311538332
 31
0.0
 12
-893.0000000000003
 22
-709.1753311538332
 32
0.0
 13
-893.0000000000003
 23
-709.1753311538332
 33
0.0
  0
TEXT
  5
136D
330
15C8
100
AcDbEntity
  8
0
  6
ByBlock
 62
     1
100
AcDbText
 10
-979.0617720076776
 20
-710.5643978663048
 30
0.0
 40
4.167200137414932
  1
5.40 [137]
100
AcDbText
  0
POINT
  5
136E
330
15C8
100
AcDbEntity
  8
DEFPOINTS
  6
ByBlock
 62
     0
100
AcDbPoint
 10
-1030.0
 20
-622.066161057382
 30
0.0
  0
POINT
  5
136F
330
15C8
100
AcDbEntity
  8
DEFPOINTS
  6
ByBlock
 62
     0
100
AcDbPoint
 10
-893.0000000000003
 20
-675.9189076403331
 30
0.0
  0
POINT
  5
1370
330
15C8
100
AcDbEntity
  8
DEFPOINTS
  6
ByBlock
 62
     0
100
AcDbPoint
 10
-893.0000000000003
 20
-709.1753311538332
 30
0.0
  0
ENDBLK
  5
1371
330
15C8
100
AcDbEntity
  8
0
100
AcDbBlockEnd
  0
BLOCK
  5
113C
330
15C9
100
AcDbEntity
  8
0
100
AcDbBlockBegin
  2
*D10
 70
     1
 10
0.0
 20
0.0
 30
0.0
  3
*D10
  1

  0
LINE
  5
113D
330
15C9
100
AcDbEntity
  8
0
  6
ByBlock
 62
     0
100
AcDbLine
 10
-845.0
 20
-130.0625
 30
0.0
 11
-845.0
 21
-173.0092328135694
 31
0.0
  0
LINE
  5
113E
330
15C9
100
AcDbEntity
  8
0
  6
ByBlock
 62
     0
100
AcDbLine
 10
-673.0
 20
-130.0625
 30
0.0
 11
-673.0
 21
-173.0092328135694
 31
0.0
  0
LINE
  5
113F
330
15C9
100
AcDbEntity
  8
0
  6
ByBlock
 62
     0
100
AcDbLine
 10
-842.0
 20
-172.8292328135694
 30
0.0
 11
-776.3672386514414
 21
-172.8292328135694
 31
0.0
  0
LINE
  5
1140
330
15C9
100
AcDbEntity
  8
0
  6
ByBlock
 62
     0
100
AcDbLine
 10
-676.0
 20
-172.8292328135694
 30
0.0
 11
-741.6327613485585
 21
-172.8292328135694
 31
0.0
  0
SOLID
  5
1141
330
15C9
100
AcDbEntity
  8
0
  6
ByBlock
 62
     0
100
AcDbTrace
 10
-842.0
 20
-172.3292328135694
 30
0.0
 11
-842.0
 21
-173.3292328135694
 31
0.0
 12
-845.0
 22
-172.8292328135694
 32
0.0
 13
-845.0
 23
-172.8292328135694
 33
0.0
  0
SOLID
  5
1142
330
15C9
100
AcDbEntity
  8
0
  6
ByBlock
 62
     0
100
AcDbTrace
 10
-676.0
 20
-172.3292328135694
 30
0.0
 11
-676.0
 21
-173.3292328135694
 31
0.0
 12
-673.0
 22
-172.8292328135694
 32
0.0
 13
-673.0
 23
-172.8292328135694
 33
0.0
  0
TEXT
  5
1143
330
15C9
100
AcDbEntity
  8
0
  6
ByBlock
 62
     1
100
AcDbText
 10
-776.6609910585681
 20
-174.2182995260411
 30
0.0
 40
4.167200137414932
  1
6.77 [172]
100
AcDbText
  0
POINT
  5
1144
330
15C9
100
AcDbEntity
  8
DEFPOINTS
  6
ByBlock
 62
     0
100
AcDbPoint
 10
-845.0
 20
-130.0
 30
0.0
  0
POINT
  5
1145
330
15C9
100
AcDbEntity
  8
DEFPOINTS
  6
ByBlock
 62
     0
100
AcDbPoint
 10
-673.0
 20
-130.0
 30
0.0
  0
POINT
  5
1146
330
15C9
100
AcDbEntity
  8
DEFPOINTS
  6
ByBlock
 62
     0
100
AcDbPoint
 10
-673.0
 20
-172.8292328135694
 30
0.0
  0
ENDBLK
  5
1147
330
15C9
100
AcDbEntity
  8
0
100
AcDbBlockEnd
  0
BLOCK
  5
126A
330
15CA
100
AcDbEntity
  8
0
100
AcDbBlockBegin
  2
*D11
 70
     1
 10
0.0
 20
0.0
 30
0.0
  3
*D11
  1

  0
LINE
  5
126B
330
15CA
100
AcDbEntity
  8
0
  6
ByBlock
 62
     0
100
AcDbLine
 10
-673.0
 20
-130.0625
 30
0.0
 11
-673.0
 21
-173.1892328135694
 31
0.0
  0
LINE
  5
126C
330
15CA
100
AcDbEntity
  8
0
  6
ByBlock
 62
     0
100
AcDbLine
 10
-663.0
 20
-130.0625
 30
0.0
 11
-663.0
 21
-173.1892328135694
 31
0.0
  0
LINE
  5
126D
330
15CA
100
AcDbEntity
  8
0
  6
ByBlock
 62
     0
100
AcDbLine
 10
-670.0
 20
-173.0092328135694
 30
0.0
 11
-666.0
 21
-173.0092328135694
 31
0.0
  0
LINE
  5
126E
330
15CA
100
AcDbEntity
  8
0
  6
ByBlock
 62
     0
100
AcDbLine
 10
-663.0
 20
-173.0092328135694
 30
0.0
 11
-660.0
 21
-173.0092328135694
 31
0.0
  0
SOLID
  5
126F
330
15CA
100
AcDbEntity
  8
0
  6
ByBlock
 62
     0
100
AcDbTrace
 10
-670.0
 20
-172.5092328135694
 30
0.0
 11
-670.0
 21
-173.5092328135694
 31
0.0
 12
-673.0
 22
-173.0092328135694
 32
0.0
 13
-673.0
 23
-173.0092328135694
 33
0.0
  0
SOLID
  5
1270
330
15CA
100
AcDbEntity
  8
0
  6
ByBlock
 62
     0
100
AcDbTrace
 10
-666.0
 20
-172.5092328135694
 30
0.0
 11
-666.0
 21
-173.5092328135694
 31
0.0
 12
-663.0
 22
-173.0092328135694
 32
0.0
 13
-663.0
 23
-173.0092328135694
 33
0.0
  0
TEXT
  5
1271
330
15CA
100
AcDbEntity
  8
0
  6
ByBlock
 62
     1
100
AcDbText
 10
-660.2937524071267
 20
-171.6196994573336
 30
0.0
 40
4.167200137414932
  1
.3953
100
AcDbText
  0
TEXT
  5
156D
330
15CA
100
AcDbEntity
  8
0
  6
ByBlock
 62
     1
100
AcDbText
 10
-660.2937524071267
 20
-177.1759663072202
 30
0.0
 40
4.167200137414932
  1
.3937
100
AcDbText
1001
ACAD
1000
R13OBJECT
1002
{
1005
1271
1002
}
  0
TEXT
  5
156E
330
15CA
100
AcDbEntity
  8
0
  6
ByBlock
 62
     1
100
AcDbText
 10
-642.4343232467768
 20
-174.3978328822769
 30
0.0
 40
4.167200137414932
  1
 [10
100
AcDbText
1001
ACAD
1000
R13OBJECT
1002
{
1005
1271
1002
}
  0
TEXT
  5
156F
330
15CA
100
AcDbEntity
  8
0
  6
ByBlock
 62
     1
100
AcDbText
 10
-627.9324179941046
 20
-171.9808994802361
 30
0.0
 40
2.0
  1
+0.04
100
AcDbText
1001
ACAD
1000
R13OBJECT
1002
{
1005
1271
1002
}
  0
TEXT
  5
1570
330
15CA
100
AcDbEntity
  8
0
  6
ByBlock
 62
     1
100
AcDbText
 10
-627.9324179941046
 20
-174.6475661469027
 30
0.0
 40
2.0
  1
+0
100
AcDbText
1001
ACAD
1000
R13OBJECT
1002
{
1005
1271
1002
}
  0
TEXT
  5
1571
330
15CA
100
AcDbEntity
  8
0
  6
ByBlock
 62
     1
100
AcDbText
 10
-618.6943227560093
 20
-174.3992328135694
 30
0.0
 40
4.169999999999999
  1
]
100
AcDbText
1001
ACAD
1000
R13OBJECT
1002
{
1005
1271
1002
}
  0
POINT
  5
1272
330
15CA
100
AcDbEntity
  8
DEFPOINTS
  6
ByBlock
 62
     0
100
AcDbPoint
 10
-673.0
 20
-130.0
 30
0.0
  0
POINT
  5
1273
330
15CA
100
AcDbEntity
  8
DEFPOINTS
  6
ByBlock
 62
     0
100
AcDbPoint
 10
-663.0
 20
-130.0
 30
0.0
  0
POINT
  5
1274
330
15CA
100
AcDbEntity
  8
DEFPOINTS
  6
ByBlock
 62
     0
100
AcDbPoint
 10
-663.0
 20
-173.0092328135694
 30
0.0
  0
ENDBLK
  5
1275
330
15CA
100
AcDbEntity
  8
0
100
AcDbBlockEnd
  0
BLOCK
  5
F91
330
15CB
100
AcDbEntity
  8
0
100
AcDbBlockBegin
  2
*D12
 70
     1
 10
0.0
 20
0.0
 30
0.0
  3
*D12
  1

  0
LINE
  5
F92
330
15CB
100
AcDbEntity
  8
0
  6
ByBlock
 62
     0
100
AcDbLine
 10
-795.0
 20
-135.8066253662109
 30
0.0
 11
-795.0
 21
-199.0362756856727
 31
0.0
  0
LINE
  5
F93
330
15CB
100
AcDbEntity
  8
0
  6
ByBlock
 62
     0
100
AcDbLine
 10
-535.0
 20
-135.8066253662109
 30
0.0
 11
-535.0
 21
-199.0362756856727
 31
0.0
  0
LINE
  5
F94
330
15CB
100
AcDbEntity
  8
0
  6
ByBlock
 62
     0
100
AcDbLine
 10
-792.0
 20
-198.8562756856727
 30
0.0
 11
-684.1531815674763
 21
-198.8562756856727
 31
0.0
  0
LINE
  5
F95
330
15CB
100
AcDbEntity
  8
0
  6
ByBlock
 62
     0
100
AcDbLine
 10
-538.0
 20
-198.8562756856727
 30
0.0
 11
-645.8468184325235
 21
-198.8562756856727
 31
0.0
  0
SOLID
  5
F96
330
15CB
100
AcDbEntity
  8
0
  6
ByBlock
 62
     0
100
AcDbTrace
 10
-792.0
 20
-198.3562756856727
 30
0.0
 11
-792.0
 21
-199.3562756856727
 31
0.0
 12
-795.0
 22
-198.8562756856727
 32
0.0
 13
-795.0
 23
-198.8562756856727
 33
0.0
  0
SOLID
  5
F97
330
15CB
100
AcDbEntity
  8
0
  6
ByBlock
 62
     0
100
AcDbTrace
 10
-538.0
 20
-198.3562756856727
 30
0.0
 11
-538.0
 21
-199.3562756856727
 31
0.0
 12
-535.0
 22
-198.8562756856727
 32
0.0
 13
-535.0
 23
-198.8562756856727
 33
0.0
  0
TEXT
  5
F98
330
15CB
100
AcDbEntity
  8
0
  6
ByBlock
 62
     1
100
AcDbText
 10
-684.8438101781663
 20
-200.2453423981443
 30
0.0
 40
4.167200137414932
  1
10.24 [260]
100
AcDbText
  0
POINT
  5
F99
330
15CB
100
AcDbEntity
  8
DEFPOINTS
  6
ByBlock
 62
     0
100
AcDbPoint
 10
-795.0
 20
-135.7441253662109
 30
0.0
  0
POINT
  5
F9A
330
15CB
100
AcDbEntity
  8
DEFPOINTS
  6
ByBlock
 62
     0
100
AcDbPoint
 10
-535.0
 20
-135.7441253662109
 30
0.0
  0
POINT
  5
F9B
330
15CB
100
AcDbEntity
  8
DEFPOINTS
  6
ByBlock
 62
     0
100
AcDbPoint
 10
-535.0
 20
-198.8562756856727
 30
0.0
  0
ENDBLK
  5
F9C
330
15CB
100
AcDbEntity
  8
0
100
AcDbBlockEnd
  0
BLOCK
  5
F9F
330
15CC
100
AcDbEntity
  8
0
100
AcDbBlockBegin
  2
*D13
 70
     1
 10
0.0
 20
0.0
 30
0.0
  3
*D13
  1

  0
LINE
  5
FA0
330
15CC
100
AcDbEntity
  8
0
  6
ByBlock
 62
     0
100
AcDbLine
 10
-845.0
 20
-130.125
 30
0.0
 11
-845.0
 21
-199.2162756856727
 31
0.0
  0
LINE
  5
FA1
330
15CC
100
AcDbEntity
  8
0
  6
ByBlock
 62
     0
100
AcDbLine
 10
-795.0
 20
-135.8691253662109
 30
0.0
 11
-795.0
 21
-199.2162756856727
 31
0.0
  0
LINE
  5
FA2
330
15CC
100
AcDbEntity
  8
0
  6
ByBlock
 62
     0
100
AcDbLine
 10
-842.0
 20
-199.0362756856727
 30
0.0
 11
-835.1844195318431
 21
-199.0362756856727
 31
0.0
  0
LINE
  5
FA3
330
15CC
100
AcDbEntity
  8
0
  6
ByBlock
 62
     0
100
AcDbLine
 10
-798.0
 20
-199.0362756856727
 30
0.0
 11
-804.8155804681568
 21
-199.0362756856727
 31
0.0
  0
SOLID
  5
FA4
330
15CC
100
AcDbEntity
  8
0
  6
ByBlock
 62
     0
100
AcDbTrace
 10
-842.0
 20
-198.5362756856727
 30
0.0
 11
-842.0
 21
-199.5362756856727
 31
0.0
 12
-845.0
 22
-199.0362756856727
 32
0.0
 13
-845.0
 23
-199.0362756856727
 33
0.0
  0
SOLID
  5
FA5
330
15CC
100
AcDbEntity
  8
0
  6
ByBlock
 62
     0
100
AcDbTrace
 10
-798.0
 20
-198.5362756856727
 30
0.0
 11
-798.0
 21
-199.5362756856727
 31
0.0
 12
-795.0
 22
-199.0362756856727
 32
0.0
 13
-795.0
 23
-199.0362756856727
 33
0.0
  0
TEXT
  5
FA6
330
15CC
100
AcDbEntity
  8
0
  6
ByBlock
 62
     1
100
AcDbText
 10
-835.875048142533
 20
-200.4253423981444
 30
0.0
 40
4.167200137414932
  1
1.97 [50]
100
AcDbText
  0
POINT
  5
FA7
330
15CC
100
AcDbEntity
  8
DEFPOINTS
  6
ByBlock
 62
     0
100
AcDbPoint
 10
-845.0
 20
-130.0625
 30
0.0
  0
POINT
  5
FA8
330
15CC
100
AcDbEntity
  8
DEFPOINTS
  6
ByBlock
 62
     0
100
AcDbPoint
 10
-795.0
 20
-135.8066253662109
 30
0.0
  0
POINT
  5
FA9
330
15CC
100
AcDbEntity
  8
DEFPOINTS
  6
ByBlock
 62
     0
100
AcDbPoint
 10
-795.0
 20
-199.0362756856727
 30
0.0
  0
ENDBLK
  5
FAA
330
15CC
100
AcDbEntity
  8
0
100
AcDbBlockEnd
  0
BLOCK
  5
FAD
330
15CD
100
AcDbEntity
  8
0
100
AcDbBlockBegin
  2
*D14
 70
     1
 10
0.0
 20
0.0
 30
0.0
  3
*D14
  1

  0
LINE
  5
FAE
330
15CD
100
AcDbEntity
  8
0
  6
ByBlock
 62
     0
100
AcDbLine
 10
-845.0
 20
-130.1875
 30
0.0
 11
-845.0
 21
-223.94787652035
 31
0.0
  0
LINE
  5
FAF
330
15CD
100
AcDbEntity
  8
0
  6
ByBlock
 62
     0
100
AcDbLine
 10
-495.0
 20
-130.0625
 30
0.0
 11
-495.0
 21
-223.94787652035
 31
0.0
  0
LINE
  5
FB0
330
15CD
100
AcDbEntity
  8
0
  6
ByBlock
 62
     0
100
AcDbLine
 10
-842.0
 20
-223.76787652035
 30
0.0
 11
-689.1531815674763
 21
-223.76787652035
 31
0.0
  0
LINE
  5
FB1
330
15CD
100
AcDbEntity
  8
0
  6
ByBlock
 62
     0
100
AcDbLine
 10
-498.0
 20
-223.76787652035
 30
0.0
 11
-650.8468184325236
 21
-223.76787652035
 31
0.0
  0
SOLID
  5
FB2
330
15CD
100
AcDbEntity
  8
0
  6
ByBlock
 62
     0
100
AcDbTrace
 10
-842.0
 20
-223.26787652035
 30
0.0
 11
-842.0
 21
-224.26787652035
 31
0.0
 12
-845.0
 22
-223.76787652035
 32
0.0
 13
-845.0
 23
-223.76787652035
 33
0.0
  0
SOLID
  5
FB3
330
15CD
100
AcDbEntity
  8
0
  6
ByBlock
 62
     0
100
AcDbTrace
 10
-498.0
 20
-223.26787652035
 30
0.0
 11
-498.0
 21
-224.26787652035
 31
0.0
 12
-495.0
 22
-223.76787652035
 32
0.0
 13
-495.0
 23
-223.76787652035
 33
0.0
  0
TEXT
  5
FB4
330
15CD
100
AcDbEntity
  8
0
  6
ByBlock
 62
     1
100
AcDbText
 10
-689.8438101781663
 20
-225.1569432328217
 30
0.0
 40
4.167200137414932
  1
13.78 [350]
100
AcDbText
  0
POINT
  5
FB5
330
15CD
100
AcDbEntity
  8
DEFPOINTS
  6
ByBlock
 62
     0
100
AcDbPoint
 10
-845.0
 20
-130.125
 30
0.0
  0
POINT
  5
FB6
330
15CD
100
AcDbEntity
  8
DEFPOINTS
  6
ByBlock
 62
     0
100
AcDbPoint
 10
-495.0
 20
-130.0
 30
0.0
  0
POINT
  5
FB7
330
15CD
100
AcDbEntity
  8
DEFPOINTS
  6
ByBlock
 62
     0
100
AcDbPoint
 10
-495.0
 20
-223.76787652035
 30
0.0
  0
ENDBLK
  5
FB8
330
15CD
100
AcDbEntity
  8
0
100
AcDbBlockEnd
  0
BLOCK
  5
FBB
330
15CE
100
AcDbEntity
  8
0
100
AcDbBlockBegin
  2
*D15
 70
     1
 10
0.0
 20
0.0
 30
0.0
  3
*D15
  1

  0
LINE
  5
FBC
330
15CE
100
AcDbEntity
  8
0
  6
ByBlock
 62
     0
100
AcDbLine
 10
-845.0
 20
-130.0625
 30
0.0
 11
-845.0
 21
-224.12787652035
 31
0.0
  0
LINE
  5
FBD
330
15CE
100
AcDbEntity
  8
0
  6
ByBlock
 62
     0
100
AcDbLine
 10
-958.0
 20
-45.5625
 30
0.0
 11
-958.0
 21
-224.12787652035
 31
0.0
  0
LINE
  5
FBE
330
15CE
100
AcDbEntity
  8
0
  6
ByBlock
 62
     0
100
AcDbLine
 10
-848.0
 20
-223.94787652035
 30
0.0
 11
-884.0335422976677
 21
-223.94787652035
 31
0.0
  0
LINE
  5
FBF
330
15CE
100
AcDbEntity
  8
0
  6
ByBlock
 62
     0
100
AcDbLine
 10
-955.0
 20
-223.94787652035
 30
0.0
 11
-918.9664577023322
 21
-223.94787652035
 31
0.0
  0
SOLID
  5
FC0
330
15CE
100
AcDbEntity
  8
0
  6
ByBlock
 62
     0
100
AcDbTrace
 10
-848.0
 20
-223.44787652035
 30
0.0
 11
-848.0
 21
-224.44787652035
 31
0.0
 12
-845.0
 22
-223.94787652035
 32
0.0
 13
-845.0
 23
-223.94787652035
 33
0.0
  0
SOLID
  5
FC1
330
15CE
100
AcDbEntity
  8
0
  6
ByBlock
 62
     0
100
AcDbTrace
 10
-955.0
 20
-223.44787652035
 30
0.0
 11
-955.0
 21
-224.44787652035
 31
0.0
 12
-958.0
 22
-223.94787652035
 32
0.0
 13
-958.0
 23
-223.94787652035
 33
0.0
  0
TEXT
  5
FC2
330
15CE
100
AcDbEntity
  8
0
  6
ByBlock
 62
     1
100
AcDbText
 10
-919.0617720076772
 20
-225.3369432328216
 30
0.0
 40
4.167200137414932
  1
4.45 [113]
100
AcDbText
  0
POINT
  5
FC3
330
15CE
100
AcDbEntity
  8
DEFPOINTS
  6
ByBlock
 62
     0
100
AcDbPoint
 10
-845.0
 20
-130.0
 30
0.0
  0
POINT
  5
FC4
330
15CE
100
AcDbEntity
  8
DEFPOINTS
  6
ByBlock
 62
     0
100
AcDbPoint
 10
-958.0
 20
-45.49999999999999
 30
0.0
  0
POINT
  5
FC5
330
15CE
100
AcDbEntity
  8
DEFPOINTS
  6
ByBlock
 62
     0
100
AcDbPoint
 10
-958.0
 20
-223.94787652035
 30
0.0
  0
ENDBLK
  5
FC6
330
15CE
100
AcDbEntity
  8
0
100
AcDbBlockEnd
  0
BLOCK
  5
FC9
330
15CF
100
AcDbEntity
  8
0
100
AcDbBlockBegin
  2
*D16
 70
     1
 10
0.0
 20
0.0
 30
0.0
  3
*D16
  1

  0
LINE
  5
FCA
330
15CF
100
AcDbEntity
  8
0
  6
ByBlock
 62
     0
100
AcDbLine
 10
-845.0
 20
-130.0625
 30
0.0
 11
-845.0
 21
-199.2162756856727
 31
0.0
  0
LINE
  5
FCB
330
15CF
100
AcDbEntity
  8
0
  6
ByBlock
 62
     0
100
AcDbLine
 10
-893.0
 20
-74.06253814697265
 30
0.0
 11
-893.0
 21
-199.2162756856727
 31
0.0
  0
LINE
  5
FCC
330
15CF
100
AcDbEntity
  8
0
  6
ByBlock
 62
     0
100
AcDbLine
 10
-848.0
 20
-199.0362756856727
 30
0.0
 11
-853.8155804681569
 21
-199.0362756856727
 31
0.0
  0
LINE
  5
FCD
330
15CF
100
AcDbEntity
  8
0
  6
ByBlock
 62
     0
100
AcDbLine
 10
-890.0
 20
-199.0362756856727
 30
0.0
 11
-884.1844195318431
 21
-199.0362756856727
 31
0.0
  0
SOLID
  5
FCE
330
15CF
100
AcDbEntity
  8
0
  6
ByBlock
 62
     0
100
AcDbTrace
 10
-848.0
 20
-198.5362756856727
 30
0.0
 11
-848.0
 21
-199.5362756856727
 31
0.0
 12
-845.0
 22
-199.0362756856727
 32
0.0
 13
-845.0
 23
-199.0362756856727
 33
0.0
  0
SOLID
  5
FCF
330
15CF
100
AcDbEntity
  8
0
  6
ByBlock
 62
     0
100
AcDbTrace
 10
-890.0
 20
-198.5362756856727
 30
0.0
 11
-890.0
 21
-199.5362756856727
 31
0.0
 12
-893.0
 22
-199.0362756856727
 32
0.0
 13
-893.0
 23
-199.0362756856727
 33
0.0
  0
TEXT
  5
FD0
330
15CF
100
AcDbEntity
  8
0
  6
ByBlock
 62
     1
100
AcDbText
 10
-884.875048142533
 20
-200.4253423981444
 30
0.0
 40
4.167200137414932
  1
1.89 [48]
100
AcDbText
  0
POINT
  5
FD1
330
15CF
100
AcDbEntity
  8
DEFPOINTS
  6
ByBlock
 62
     0
100
AcDbPoint
 10
-845.0
 20
-130.0
 30
0.0
  0
POINT
  5
FD2
330
15CF
100
AcDbEntity
  8
DEFPOINTS
  6
ByBlock
 62
     0
100
AcDbPoint
 10
-893.0
 20
-74.00003814697265
 30
0.0
  0
POINT
  5
FD3
330
15CF
100
AcDbEntity
  8
DEFPOINTS
  6
ByBlock
 62
     0
100
AcDbPoint
 10
-893.0
 20
-199.0362756856727
 30
0.0
  0
ENDBLK
  5
FD4
330
15CF
100
AcDbEntity
  8
0
100
AcDbBlockEnd
  0
BLOCK
  5
FD7
330
15D0
100
AcDbEntity
  8
0
100
AcDbBlockBegin
  2
*D17
 70
     1
 10
0.0
 20
0.0
 30
0.0
  3
*D17
  1

  0
LINE
  5
FD8
330
15D0
100
AcDbEntity
  8
0
  6
ByBlock
 62
     0
100
AcDbLine
 10
-893.0
 20
-74.12503814697266
 30
0.0
 11
-893.0
 21
-199.3962756856727
 31
0.0
  0
LINE
  5
FD9
330
15D0
100
AcDbEntity
  8
0
  6
ByBlock
 62
     0
100
AcDbLine
 10
-958.0
 20
-45.625
 30
0.0
 11
-958.0
 21
-199.3962756856727
 31
0.0
  0
LINE
  5
FDA
330
15D0
100
AcDbEntity
  8
0
  6
ByBlock
 62
     0
100
AcDbLine
 10
-896.0
 20
-199.2162756856727
 30
0.0
 11
-910.0179233154843
 21
-199.2162756856727
 31
0.0
  0
LINE
  5
FDB
330
15D0
100
AcDbEntity
  8
0
  6
ByBlock
 62
     0
100
AcDbLine
 10
-955.0
 20
-199.2162756856727
 30
0.0
 11
-940.9820766845156
 21
-199.2162756856727
 31
0.0
  0
SOLID
  5
FDC
330
15D0
100
AcDbEntity
  8
0
  6
ByBlock
 62
     0
100
AcDbTrace
 10
-896.0
 20
-198.7162756856727
 30
0.0
 11
-896.0
 21
-199.7162756856727
 31
0.0
 12
-893.0
 22
-199.2162756856727
 32
0.0
 13
-893.0
 23
-199.2162756856727
 33
0.0
  0
SOLID
  5
FDD
330
15D0
100
AcDbEntity
  8
0
  6
ByBlock
 62
     0
100
AcDbTrace
 10
-955.0
 20
-198.7162756856727
 30
0.0
 11
-955.0
 21
-199.7162756856727
 31
0.0
 12
-958.0
 22
-199.2162756856727
 32
0.0
 13
-958.0
 23
-199.2162756856727
 33
0.0
  0
TEXT
  5
FDE
330
15D0
100
AcDbEntity
  8
0
  6
ByBlock
 62
     1
100
AcDbText
 10
-941.0773909898606
 20
-200.6053423981444
 30
0.0
 40
4.167200137414932
  1
2.56 [65]
100
AcDbText
  0
POINT
  5
FDF
330
15D0
100
AcDbEntity
  8
DEFPOINTS
  6
ByBlock
 62
     0
100
AcDbPoint
 10
-893.0
 20
-74.06253814697265
 30
0.0
  0
POINT
  5
FE0
330
15D0
100
AcDbEntity
  8
DEFPOINTS
  6
ByBlock
 62
     0
100
AcDbPoint
 10
-958.0
 20
-45.5625
 30
0.0
  0
POINT
  5
FE1
330
15D0
100
AcDbEntity
  8
DEFPOINTS
  6
ByBlock
 62
     0
100
AcDbPoint
 10
-958.0
 20
-199.2162756856727
 30
0.0
  0
ENDBLK
  5
FE2
330
15D0
100
AcDbEntity
  8
0
100
AcDbBlockEnd
  0
BLOCK
  5
1250
330
15D1
100
AcDbEntity
  8
0
100
AcDbBlockBegin
  2
*D18
 70
     1
 10
0.0
 20
0.0
 30
0.0
  3
*D18
  1

  0
LINE
  5
1251
330
15D1
100
AcDbEntity
  8
0
  6
ByBlock
 62
     0
100
AcDbLine
 10
-983.0
 20
-17.5625
 30
0.0
 11
-983.0
 21
-223.62787652035
 31
0.0
  0
LINE
  5
1252
330
15D1
100
AcDbEntity
  8
0
  6
ByBlock
 62
     0
100
AcDbLine
 10
-958.0
 20
-45.5625
 30
0.0
 11
-958.0
 21
-223.62787652035
 31
0.0
  0
LINE
  5
1253
330
15D1
100
AcDbEntity
  8
0
  6
ByBlock
 62
     0
100
AcDbLine
 10
-961.0
 20
-223.44787652035
 30
0.0
 11
-980.0
 21
-223.44787652035
 31
0.0
  0
LINE
  5
1254
330
15D1
100
AcDbEntity
  8
0
  6
ByBlock
 62
     0
100
AcDbLine
 10
-983.0
 20
-223.44787652035
 30
0.0
 11
-996.1772059086326
 21
-223.44787652035
 31
0.0
  0
SOLID
  5
1255
330
15D1
100
AcDbEntity
  8
0
  6
ByBlock
 62
     0
100
AcDbTrace
 10
-961.0
 20
-222.94787652035
 30
0.0
 11
-961.0
 21
-223.94787652035
 31
0.0
 12
-958.0
 22
-223.44787652035
 32
0.0
 13
-958.0
 23
-223.44787652035
 33
0.0
  0
SOLID
  5
1256
330
15D1
100
AcDbEntity
  8
0
  6
ByBlock
 62
     0
100
AcDbTrace
 10
-980.0
 20
-222.94787652035
 30
0.0
 11
-980.0
 21
-223.94787652035
 31
0.0
 12
-983.0
 22
-223.44787652035
 32
0.0
 13
-983.0
 23
-223.44787652035
 33
0.0
  0
TEXT
  5
1257
330
15D1
100
AcDbEntity
  8
0
  6
ByBlock
 62
     1
100
AcDbText
 10
-1023.267911547375
 20
-224.8369432328217
 30
0.0
 40
4.167200137414932
  1
.98 [25]
100
AcDbText
  0
POINT
  5
1258
330
15D1
100
AcDbEntity
  8
DEFPOINTS
  6
ByBlock
 62
     0
100
AcDbPoint
 10
-983.0
 20
-17.5
 30
0.0
  0
POINT
  5
1259
330
15D1
100
AcDbEntity
  8
DEFPOINTS
  6
ByBlock
 62
     0
100
AcDbPoint
 10
-958.0
 20
-45.49999999999999
 30
0.0
  0
POINT
  5
125A
330
15D1
100
AcDbEntity
  8
DEFPOINTS
  6
ByBlock
 62
     0
100
AcDbPoint
 10
-958.0
 20
-223.44787652035
 30
0.0
  0
ENDBLK
  5
125B
330
15D1
100
AcDbEntity
  8
0
100
AcDbBlockEnd
  0
BLOCK
  5
100B
330
15D2
100
AcDbEntity
  8
0
100
AcDbBlockBegin
  2
*D19
 70
     1
 10
0.0
 20
0.0
 30
0.0
  3
*D19
  1

  0
LINE
  5
100C
330
15D2
100
AcDbEntity
  8
0
  6
ByBlock
 62
     0
100
AcDbLine
 10
-495.0
 20
-130.125
 30
0.0
 11
-495.0
 21
-223.94787652035
 31
0.0
  0
LINE
  5
100D
330
15D2
100
AcDbEntity
  8
0
  6
ByBlock
 62
     0
100
AcDbLine
 10
0.0
 20
-50.06250381469726
 30
0.0
 11
-0.0000000000000107
 21
-223.94787652035
 31
0.0
  0
LINE
  5
100E
330
15D2
100
AcDbEntity
  8
0
  6
ByBlock
 62
     0
100
AcDbLine
 10
-492.0
 20
-223.76787652035
 30
0.0
 11
-266.6531815674763
 21
-223.76787652035
 31
0.0
  0
LINE
  5
100F
330
15D2
100
AcDbEntity
  8
0
  6
ByBlock
 62
     0
100
AcDbLine
 10
-3.00000000000001
 20
-223.76787652035
 30
0.0
 11
-228.3468184325236
 21
-223.76787652035
 31
0.0
  0
SOLID
  5
1010
330
15D2
100
AcDbEntity
  8
0
  6
ByBlock
 62
     0
100
AcDbTrace
 10
-492.0
 20
-223.26787652035
 30
0.0
 11
-492.0
 21
-224.26787652035
 31
0.0
 12
-495.0
 22
-223.76787652035
 32
0.0
 13
-495.0
 23
-223.76787652035
 33
0.0
  0
SOLID
  5
1011
330
15D2
100
AcDbEntity
  8
0
  6
ByBlock
 62
     0
100
AcDbTrace
 10
-3.00000000000001
 20
-223.26787652035
 30
0.0
 11
-3.00000000000001
 21
-224.26787652035
 31
0.0
 12
-0.0000000000000106
 22
-223.76787652035
 32
0.0
 13
-0.0000000000000106
 23
-223.76787652035
 33
0.0
  0
TEXT
  5
1012
330
15D2
100
AcDbEntity
  8
0
  6
ByBlock
 62
     1
100
AcDbText
 10
-267.3438101781663
 20
-225.1569432328217
 30
0.0
 40
4.167200137414932
  1
19.49 [495]
100
AcDbText
  0
POINT
  5
1013
330
15D2
100
AcDbEntity
  8
DEFPOINTS
  6
ByBlock
 62
     0
100
AcDbPoint
 10
-495.0
 20
-130.0625
 30
0.0
  0
POINT
  5
1014
330
15D2
100
AcDbEntity
  8
DEFPOINTS
  6
ByBlock
 62
     0
100
AcDbPoint
 10
0.0
 20
-50.00000381469726
 30
0.0
  0
POINT
  5
1015
330
15D2
100
AcDbEntity
  8
DEFPOINTS
  6
ByBlock
 62
     0
100
AcDbPoint
 10
-0.0000000000000106
 20
-223.76787652035
 30
0.0
  0
ENDBLK
  5
1016
330
15D2
100
AcDbEntity
  8
0
100
AcDbBlockEnd
  0
BLOCK
  5
1019
330
15D3
100
AcDbEntity
  8
0
100
AcDbBlockBegin
  2
*D20
 70
     1
 10
0.0
 20
0.0
 30
0.0
  3
*D20
  1

  0
LINE
  5
101A
330
15D3
100
AcDbEntity
  8
0
  6
ByBlock
 62
     0
100
AcDbLine
 10
-983.0
 20
-17.5625
 30
0.0
 11
-983.0
 21
-261.1172074832317
 31
0.0
  0
LINE
  5
101B
330
15D3
100
AcDbEntity
  8
0
  6
ByBlock
 62
     0
100
AcDbLine
 10
0.0
 20
-50.12500381469727
 30
0.0
 11
-0.0000000000000129
 21
-261.1172074832317
 31
0.0
  0
LINE
  5
101C
330
15D3
100
AcDbEntity
  8
0
  6
ByBlock
 62
     0
100
AcDbLine
 10
-980.0
 20
-260.9372074832318
 30
0.0
 11
-510.9508387201488
 21
-260.9372074832318
 31
0.0
  0
LINE
  5
101D
330
15D3
100
AcDbEntity
  8
0
  6
ByBlock
 62
     0
100
AcDbLine
 10
-3.000000000000012
 20
-260.9372074832318
 30
0.0
 11
-472.0491612798511
 21
-260.9372074832318
 31
0.0
  0
SOLID
  5
101E
330
15D3
100
AcDbEntity
  8
0
  6
ByBlock
 62
     0
100
AcDbTrace
 10
-980.0
 20
-260.4372074832318
 30
0.0
 11
-980.0
 21
-261.4372074832318
 31
0.0
 12
-983.0
 22
-260.9372074832318
 32
0.0
 13
-983.0
 23
-260.9372074832318
 33
0.0
  0
SOLID
  5
101F
330
15D3
100
AcDbEntity
  8
0
  6
ByBlock
 62
     0
100
AcDbTrace
 10
-3.000000000000012
 20
-260.4372074832318
 30
0.0
 11
-3.000000000000012
 21
-261.4372074832318
 31
0.0
 12
-0.0000000000000129
 22
-260.9372074832318
 32
0.0
 13
-0.0000000000000129
 23
-260.9372074832318
 33
0.0
  0
TEXT
  5
1020
330
15D3
100
AcDbEntity
  8
0
  6
ByBlock
 62
     1
100
AcDbText
 10
-511.0461530254938
 20
-262.3262741957034
 30
0.0
 40
4.167200137414932
  1
38.70 [983]
100
AcDbText
  0
POINT
  5
1021
330
15D3
100
AcDbEntity
  8
DEFPOINTS
  6
ByBlock
 62
     0
100
AcDbPoint
 10
-983.0
 20
-17.5
 30
0.0
  0
POINT
  5
1022
330
15D3
100
AcDbEntity
  8
DEFPOINTS
  6
ByBlock
 62
     0
100
AcDbPoint
 10
0.0
 20
-50.06250381469726
 30
0.0
  0
POINT
  5
1023
330
15D3
100
AcDbEntity
  8
DEFPOINTS
  6
ByBlock
 62
     0
100
AcDbPoint
 10
-0.0000000000000129
 20
-260.9372074832318
 30
0.0
  0
ENDBLK
  5
1024
330
15D3
100
AcDbEntity
  8
0
100
AcDbBlockEnd
  0
BLOCK
  5
1027
330
15D4
100
AcDbEntity
  8
0
100
AcDbBlockBegin
  2
*D21
 70
     1
 10
0.0
 20
0.0
 30
0.0
  3
*D21
  1

  0
LINE
  5
1028
330
15D4
100
AcDbEntity
  8
0
  6
ByBlock
 62
     0
100
AcDbLine
 10
17.9791374206543
 20
0.0
 30
0.0
 11
81.62847637313252
 21
-0.0000000000000078
 31
0.0
  0
LINE
  5
1029
330
15D4
100
AcDbEntity
  8
0
  6
ByBlock
 62
     0
100
AcDbLine
 10
17.38382339477539
 20
267.0
 30
0.0
 11
81.62847637313253
 21
267.0
 31
0.0
  0
LINE
  5
102A
330
15D4
100
AcDbEntity
  8
0
  6
ByBlock
 62
     0
100
AcDbLine
 10
81.44847637313251
 20
2.999999999999992
 30
0.0
 11
81.44847637313253
 21
129.8249903714934
 31
0.0
  0
LINE
  5
102B
330
15D4
100
AcDbEntity
  8
0
  6
ByBlock
 62
     0
100
AcDbLine
 10
81.44847637313253
 20
264.0
 30
0.0
 11
81.44847637313253
 21
137.1750096285066
 31
0.0
  0
SOLID
  5
102C
330
15D4
100
AcDbEntity
  8
0
  6
ByBlock
 62
     0
100
AcDbTrace
 10
80.9484763731325
 20
2.999999999999992
 30
0.0
 11
81.9484763731325
 21
2.999999999999992
 31
0.0
 12
81.44847637313251
 22
-0.0000000000000078
 32
0.0
 13
81.44847637313251
 23
-0.0000000000000078
 33
0.0
  0
SOLID
  5
102D
330
15D4
100
AcDbEntity
  8
0
  6
ByBlock
 62
     0
100
AcDbTrace
 10
80.94847637313252
 20
264.0
 30
0.0
 11
81.94847637313252
 21
264.0
 31
0.0
 12
81.44847637313253
 22
267.0
 32
0.0
 13
81.44847637313253
 23
267.0
 33
0.0
  0
TEXT
  5
102E
330
15D4
100
AcDbEntity
  8
0
  6
ByBlock
 62
     1
100
AcDbText
 10
61.60466619496617
 20
132.1109332875283
 30
0.0
 40
4.167200137414932
  1
10.51 [267]
100
AcDbText
  0
POINT
  5
102F
330
15D4
100
AcDbEntity
  8
DEFPOINTS
  6
ByBlock
 62
     0
100
AcDbPoint
 10
17.9166374206543
 20
0.0
 30
0.0
  0
POINT
  5
1030
330
15D4
100
AcDbEntity
  8
DEFPOINTS
  6
ByBlock
 62
     0
100
AcDbPoint
 10
17.32132339477539
 20
267.0
 30
0.0
  0
POINT
  5
1031
330
15D4
100
AcDbEntity
  8
DEFPOINTS
  6
ByBlock
 62
     0
100
AcDbPoint
 10
81.44847637313253
 20
267.0
 30
0.0
  0
ENDBLK
  5
1032
330
15D4
100
AcDbEntity
  8
0
100
AcDbBlockEnd
  0
BLOCK
  5
1035
330
15D5
100
AcDbEntity
  8
0
100
AcDbBlockBegin
  2
*D22
 70
     1
 10
0.0
 20
0.0
 30
0.0
  3
*D22
  1

  0
LINE
  5
1036
330
15D5
100
AcDbEntity
  8
0
  6
ByBlock
 62
     0
100
AcDbLine
 10
0.0
 20
320.0625
 30
0.0
 11
0.0000000000000129
 21
530.1894031838663
 31
0.0
  0
LINE
  5
1037
330
15D5
100
AcDbEntity
  8
0
  6
ByBlock
 62
     0
100
AcDbLine
 10
-115.0
 20
395.0625
 30
0.0
 11
-115.0
 21
530.1894031838663
 31
0.0
  0
LINE
  5
1038
330
15D5
100
AcDbEntity
  8
0
  6
ByBlock
 62
     0
100
AcDbLine
 10
-2.999999999999987
 20
530.0094031838662
 30
0.0
 11
-40.03354229766777
 21
530.0094031838662
 31
0.0
  0
LINE
  5
1039
330
15D5
100
AcDbEntity
  8
0
  6
ByBlock
 62
     0
100
AcDbLine
 10
-112.0
 20
530.0094031838662
 30
0.0
 11
-74.96645770233221
 21
530.0094031838662
 31
0.0
  0
SOLID
  5
103A
330
15D5
100
AcDbEntity
  8
0
  6
ByBlock
 62
     0
100
AcDbTrace
 10
-2.999999999999987
 20
530.5094031838661
 30
0.0
 11
-2.999999999999987
 21
529.5094031838662
 31
0.0
 12
0.0000000000000129
 22
530.0094031838662
 32
0.0
 13
0.0000000000000129
 23
530.0094031838662
 33
0.0
  0
SOLID
  5
103B
330
15D5
100
AcDbEntity
  8
0
  6
ByBlock
 62
     0
100
AcDbTrace
 10
-112.0
 20
530.5094031838661
 30
0.0
 11
-112.0
 21
529.5094031838662
 31
0.0
 12
-115.0
 22
530.0094031838662
 32
0.0
 13
-115.0
 23
530.0094031838662
 33
0.0
  0
TEXT
  5
103C
330
15D5
100
AcDbEntity
  8
0
  6
ByBlock
 62
     1
100
AcDbText
 10
-75.06177200767719
 20
528.6203364713945
 30
0.0
 40
4.167200137414932
  1
4.53 [115]
100
AcDbText
  0
POINT
  5
103D
330
15D5
100
AcDbEntity
  8
DEFPOINTS
  6
ByBlock
 62
     0
100
AcDbPoint
 10
0.0
 20
320.0
 30
0.0
  0
POINT
  5
103E
330
15D5
100
AcDbEntity
  8
DEFPOINTS
  6
ByBlock
 62
     0
100
AcDbPoint
 10
-115.0
 20
395.0
 30
0.0
  0
POINT
  5
103F
330
15D5
100
AcDbEntity
  8
DEFPOINTS
  6
ByBlock
 62
     0
100
AcDbPoint
 10
-115.0
 20
530.0094031838662
 30
0.0
  0
ENDBLK
  5
1040
330
15D5
100
AcDbEntity
  8
0
100
AcDbBlockEnd
  0
BLOCK
  5
1043
330
15D6
100
AcDbEntity
  8
0
100
AcDbBlockBegin
  2
*D23
 70
     1
 10
0.0
 20
0.0
 30
0.0
  3
*D23
  1

  0
LINE
  5
1044
330
15D6
100
AcDbEntity
  8
0
  6
ByBlock
 62
     0
100
AcDbLine
 10
-115.0
 20
395.0625
 30
0.0
 11
-115.0
 21
530.1894031838663
 31
0.0
  0
LINE
  5
1045
330
15D6
100
AcDbEntity
  8
0
  6
ByBlock
 62
     0
100
AcDbLine
 10
-419.7999877929687
 20
362.5025024414063
 30
0.0
 11
-419.7999877929687
 21
530.1894031838663
 31
0.0
  0
LINE
  5
1046
330
15D6
100
AcDbEntity
  8
0
  6
ByBlock
 62
     0
100
AcDbLine
 10
-118.0
 20
530.0094031838662
 30
0.0
 11
-248.246812329008
 21
530.0094031838662
 31
0.0
  0
LINE
  5
1047
330
15D6
100
AcDbEntity
  8
0
  6
ByBlock
 62
     0
100
AcDbLine
 10
-416.7999877929687
 20
530.0094031838662
 30
0.0
 11
-286.5531754639607
 21
530.0094031838662
 31
0.0
  0
SOLID
  5
1048
330
15D6
100
AcDbEntity
  8
0
  6
ByBlock
 62
     0
100
AcDbTrace
 10
-118.0
 20
530.5094031838661
 30
0.0
 11
-118.0
 21
529.5094031838662
 31
0.0
 12
-115.0
 22
530.0094031838662
 32
0.0
 13
-115.0
 23
530.0094031838662
 33
0.0
  0
SOLID
  5
1049
330
15D6
100
AcDbEntity
  8
0
  6
ByBlock
 62
     0
100
AcDbTrace
 10
-416.7999877929687
 20
530.5094031838661
 30
0.0
 11
-416.7999877929687
 21
529.5094031838662
 31
0.0
 12
-419.7999877929687
 22
530.0094031838662
 32
0.0
 13
-419.7999877929687
 23
530.0094031838662
 33
0.0
  0
TEXT
  5
104A
330
15D6
100
AcDbEntity
  8
0
  6
ByBlock
 62
     1
100
AcDbText
 10
-287.2438040746507
 20
528.6203364713945
 30
0.0
 40
4.167200137414932
  1
12.00 [305]
100
AcDbText
  0
POINT
  5
104B
330
15D6
100
AcDbEntity
  8
DEFPOINTS
  6
ByBlock
 62
     0
100
AcDbPoint
 10
-115.0
 20
395.0
 30
0.0
  0
POINT
  5
104C
330
15D6
100
AcDbEntity
  8
DEFPOINTS
  6
ByBlock
 62
     0
100
AcDbPoint
 10
-419.7999877929687
 20
362.4400024414062
 30
0.0
  0
POINT
  5
104D
330
15D6
100
AcDbEntity
  8
DEFPOINTS
  6
ByBlock
 62
     0
100
AcDbPoint
 10
-419.7999877929687
 20
530.0094031838662
 30
0.0
  0
ENDBLK
  5
104E
330
15D6
100
AcDbEntity
  8
0
100
AcDbBlockEnd
  0
BLOCK
  5
1051
330
15D7
100
AcDbEntity
  8
0
100
AcDbBlockBegin
  2
*D24
 70
     1
 10
0.0
 20
0.0
 30
0.0
  3
*D24
  1

  0
LINE
  5
1052
330
15D7
100
AcDbEntity
  8
0
  6
ByBlock
 62
     0
100
AcDbLine
 10
-115.0
 20
395.125
 30
0.0
 11
-115.0
 21
565.9927070477785
 31
0.0
  0
LINE
  5
1053
330
15D7
100
AcDbEntity
  8
0
  6
ByBlock
 62
     0
100
AcDbLine
 10
-457.8999938964844
 20
362.5025024414063
 30
0.0
 11
-457.8999938964844
 21
565.9927070477785
 31
0.0
  0
LINE
  5
1054
330
15D7
100
AcDbEntity
  8
0
  6
ByBlock
 62
     0
100
AcDbLine
 10
-118.0
 20
565.8127070477785
 30
0.0
 11
-267.2968153807659
 21
565.8127070477785
 31
0.0
  0
LINE
  5
1055
330
15D7
100
AcDbEntity
  8
0
  6
ByBlock
 62
     0
100
AcDbLine
 10
-454.8999938964843
 20
565.8127070477785
 30
0.0
 11
-305.6031785157185
 21
565.8127070477785
 31
0.0
  0
SOLID
  5
1056
330
15D7
100
AcDbEntity
  8
0
  6
ByBlock
 62
     0
100
AcDbTrace
 10
-118.0
 20
566.3127070477785
 30
0.0
 11
-118.0
 21
565.3127070477785
 31
0.0
 12
-115.0
 22
565.8127070477785
 32
0.0
 13
-115.0
 23
565.8127070477785
 33
0.0
  0
SOLID
  5
1057
330
15D7
100
AcDbEntity
  8
0
  6
ByBlock
 62
     0
100
AcDbTrace
 10
-454.8999938964843
 20
566.3127070477785
 30
0.0
 11
-454.8999938964843
 21
565.3127070477785
 31
0.0
 12
-457.8999938964844
 22
565.8127070477785
 32
0.0
 13
-457.8999938964844
 23
565.8127070477785
 33
0.0
  0
TEXT
  5
1058
330
15D7
100
AcDbEntity
  8
0
  6
ByBlock
 62
     1
100
AcDbText
 10
-306.2938071264085
 20
564.4236403353069
 30
0.0
 40
4.167200137414932
  1
13.50 [343]
100
AcDbText
  0
POINT
  5
1059
330
15D7
100
AcDbEntity
  8
DEFPOINTS
  6
ByBlock
 62
     0
100
AcDbPoint
 10
-115.0
 20
395.0625
 30
0.0
  0
POINT
  5
105A
330
15D7
100
AcDbEntity
  8
DEFPOINTS
  6
ByBlock
 62
     0
100
AcDbPoint
 10
-457.8999938964844
 20
362.4400024414062
 30
0.0
  0
POINT
  5
105B
330
15D7
100
AcDbEntity
  8
DEFPOINTS
  6
ByBlock
 62
     0
100
AcDbPoint
 10
-457.8999938964844
 20
565.8127070477785
 30
0.0
  0
ENDBLK
  5
105C
330
15D7
100
AcDbEntity
  8
0
100
AcDbBlockEnd
  0
BLOCK
  5
1196
330
15D9
100
AcDbEntity
  8
0
100
AcDbBlockBegin
  2
*D25
 70
     1
 10
0.0
 20
0.0
 30
0.0
  3
*D25
  1

  0
LINE
  5
1197
330
15D9
100
AcDbEntity
  8
0
  6
ByBlock
 62
     0
100
AcDbLine
 10
-463.362488934179
 20
382.4400024414062
 30
0.0
 11
-573.4773697634607
 21
382.4400024414062
 31
0.0
  0
LINE
  5
1198
330
15D9
100
AcDbEntity
  8
0
  6
ByBlock
 62
     0
100
AcDbLine
 10
-463.362488934179
 20
151.5599975585937
 30
0.0
 11
-573.4773697634607
 21
151.5599975585937
 31
0.0
  0
LINE
  5
1199
330
15D9
100
AcDbEntity
  8
0
  6
ByBlock
 62
     0
100
AcDbLine
 10
-573.2973697634606
 20
379.4400024414063
 30
0.0
 11
-573.2973697634606
 21
270.6750096285067
 31
0.0
  0
LINE
  5
119A
330
15D9
100
AcDbEntity
  8
0
  6
ByBlock
 62
     0
100
AcDbLine
 10
-573.2973697634606
 20
154.5599975585937
 30
0.0
 11
-573.2973697634606
 21
263.3249903714934
 31
0.0
  0
SOLID
  5
119B
330
15D9
100
AcDbEntity
  8
0
  6
ByBlock
 62
     0
100
AcDbTrace
 10
-573.7973697634607
 20
379.4400024414063
 30
0.0
 11
-572.7973697634606
 21
379.4400024414063
 31
0.0
 12
-573.2973697634606
 22
382.4400024414062
 32
0.0
 13
-573.2973697634606
 23
382.4400024414062
 33
0.0
  0
SOLID
  5
119C
330
15D9
100
AcDbEntity
  8
0
  6
ByBlock
 62
     0
100
AcDbTrace
 10
-573.7973697634607
 20
154.5599975585937
 30
0.0
 11
-572.7973697634606
 21
154.5599975585937
 31
0.0
 12
-573.2973697634606
 22
151.5599975585937
 32
0.0
 13
-573.2973697634606
 23
151.5599975585937
 33
0.0
  0
TEXT
  5
119D
330
15D9
100
AcDbEntity
  8
0
  6
ByBlock
 62
     1
100
AcDbText
 10
-600.3841706566577
 20
265.6109332875284
 30
0.0
 40
4.167200137414932
  1
9.09DIA [%%c230.9]
100
AcDbText
  0
POINT
  5
119E
330
15D9
100
AcDbEntity
  8
DEFPOINTS
  6
ByBlock
 62
     0
100
AcDbPoint
 10
-463.299988934179
 20
382.4400024414062
 30
0.0
  0
POINT
  5
119F
330
15D9
100
AcDbEntity
  8
DEFPOINTS
  6
ByBlock
 62
     0
100
AcDbPoint
 10
-463.299988934179
 20
151.5599975585937
 30
0.0
  0
POINT
  5
11A0
330
15D9
100
AcDbEntity
  8
DEFPOINTS
  6
ByBlock
 62
     0
100
AcDbPoint
 10
-573.2973697634606
 20
151.5599975585937
 30
0.0
  0
ENDBLK
  5
11A1
330
15D9
100
AcDbEntity
  8
0
100
AcDbBlockEnd
  0
BLOCK
  5
1095
330
15DA
100
AcDbEntity
  8
0
100
AcDbBlockBegin
  2
*D26
 70
     1
 10
0.0
 20
0.0
 30
0.0
  3
*D26
  1

  0
LINE
  5
1096
330
15DA
100
AcDbEntity
  8
0
  6
ByBlock
 62
     0
100
AcDbLine
 10
654.0589599609375
 20
320.0625305175781
 30
0.0
 11
654.0589599609375
 21
564.5659362932908
 31
0.0
  0
LINE
  5
1097
330
15DA
100
AcDbEntity
  8
0
  6
ByBlock
 62
     0
100
AcDbLine
 10
404.0589599609375
 20
320.0625
 30
0.0
 11
404.0589599609375
 21
564.5659362932908
 31
0.0
  0
LINE
  5
1098
330
15DA
100
AcDbEntity
  8
0
  6
ByBlock
 62
     0
100
AcDbLine
 10
651.0589599609375
 20
564.3859362932907
 30
0.0
 11
546.5254176632697
 21
564.3859362932907
 31
0.0
  0
LINE
  5
1099
330
15DA
100
AcDbEntity
  8
0
  6
ByBlock
 62
     0
100
AcDbLine
 10
407.0589599609375
 20
564.3859362932907
 30
0.0
 11
511.5925022586052
 21
564.3859362932907
 31
0.0
  0
SOLID
  5
109A
330
15DA
100
AcDbEntity
  8
0
  6
ByBlock
 62
     0
100
AcDbTrace
 10
651.0589599609375
 20
564.8859362932908
 30
0.0
 11
651.0589599609375
 21
563.8859362932907
 31
0.0
 12
654.0589599609375
 22
564.3859362932907
 32
0.0
 13
654.0589599609375
 23
564.3859362932907
 33
0.0
  0
SOLID
  5
109B
330
15DA
100
AcDbEntity
  8
0
  6
ByBlock
 62
     0
100
AcDbTrace
 10
407.0589599609375
 20
564.8859362932908
 30
0.0
 11
407.0589599609375
 21
563.8859362932907
 31
0.0
 12
404.0589599609375
 22
564.3859362932907
 32
0.0
 13
404.0589599609375
 23
564.3859362932907
 33
0.0
  0
TEXT
  5
109C
330
15DA
100
AcDbEntity
  8
0
  6
ByBlock
 62
     1
100
AcDbText
 10
511.4971879532602
 20
562.9968695808192
 30
0.0
 40
4.167200137414932
  1
9.84 [250]
100
AcDbText
  0
POINT
  5
109D
330
15DA
100
AcDbEntity
  8
DEFPOINTS
  6
ByBlock
 62
     0
100
AcDbPoint
 10
654.0589599609375
 20
320.0000305175781
 30
0.0
  0
POINT
  5
109E
330
15DA
100
AcDbEntity
  8
DEFPOINTS
  6
ByBlock
 62
     0
100
AcDbPoint
 10
404.0589599609375
 20
320.0
 30
0.0
  0
POINT
  5
109F
330
15DA
100
AcDbEntity
  8
DEFPOINTS
  6
ByBlock
 62
     0
100
AcDbPoint
 10
404.0589599609375
 20
564.3859362932907
 30
0.0
  0
ENDBLK
  5
10A0
330
15DA
100
AcDbEntity
  8
0
100
AcDbBlockEnd
  0
BLOCK
  5
1276
330
15DB
100
AcDbEntity
  8
0
100
AcDbBlockBegin
  2
*D27
 70
     1
 10
0.0
 20
0.0
 30
0.0
  3
*D27
  1

  0
LINE
  5
1277
330
15DB
100
AcDbEntity
  8
0
  6
ByBlock
 62
     0
100
AcDbLine
 10
524.0589599609375
 20
-130.0625
 30
0.0
 11
524.0589599609375
 21
-172.3327165035186
 31
0.0
  0
LINE
  5
1278
330
15DB
100
AcDbEntity
  8
0
  6
ByBlock
 62
     0
100
AcDbLine
 10
534.0589599609375
 20
-130.0625
 30
0.0
 11
534.0589599609375
 21
-172.3327165035186
 31
0.0
  0
LINE
  5
1279
330
15DB
100
AcDbEntity
  8
0
  6
ByBlock
 62
     0
100
AcDbLine
 10
527.0589599609374
 20
-172.1527165035186
 30
0.0
 11
531.0589599609374
 21
-172.1527165035186
 31
0.0
  0
LINE
  5
127A
330
15DB
100
AcDbEntity
  8
0
  6
ByBlock
 62
     0
100
AcDbLine
 10
534.0589599609375
 20
-172.1527165035186
 30
0.0
 11
537.0589599609375
 21
-172.1527165035186
 31
0.0
  0
SOLID
  5
127B
330
15DB
100
AcDbEntity
  8
0
  6
ByBlock
 62
     0
100
AcDbTrace
 10
527.0589599609374
 20
-171.6527165035186
 30
0.0
 11
527.0589599609374
 21
-172.6527165035186
 31
0.0
 12
524.0589599609375
 22
-172.1527165035186
 32
0.0
 13
524.0589599609375
 23
-172.1527165035186
 33
0.0
  0
SOLID
  5
127C
330
15DB
100
AcDbEntity
  8
0
  6
ByBlock
 62
     0
100
AcDbTrace
 10
531.0589599609374
 20
-171.6527165035186
 30
0.0
 11
531.0589599609374
 21
-172.6527165035186
 31
0.0
 12
534.0589599609375
 22
-172.1527165035186
 32
0.0
 13
534.0589599609375
 23
-172.1527165035186
 33
0.0
  0
TEXT
  5
127D
330
15DB
100
AcDbEntity
  8
0
  6
ByBlock
 62
     1
100
AcDbText
 10
536.7652075538107
 20
-170.7631831472828
 30
0.0
 40
4.167200137414932
  1
.3953
100
AcDbText
  0
TEXT
  5
1572
330
15DB
100
AcDbEntity
  8
0
  6
ByBlock
 62
     1
100
AcDbText
 10
536.7652075538107
 20
-176.3194499971693
 30
0.0
 40
4.167200137414932
  1
.3937
100
AcDbText
1001
ACAD
1000
R13OBJECT
1002
{
1005
127D
1002
}
  0
TEXT
  5
1573
330
15DB
100
AcDbEntity
  8
0
  6
ByBlock
 62
     1
100
AcDbText
 10
554.6246367141606
 20
-173.541316572226
 30
0.0
 40
4.167200137414932
  1
 [10
100
AcDbText
1001
ACAD
1000
R13OBJECT
1002
{
1005
127D
1002
}
  0
TEXT
  5
1574
330
15DB
100
AcDbEntity
  8
0
  6
ByBlock
 62
     1
100
AcDbText
 10
569.1265419668328
 20
-171.1243831701852
 30
0.0
 40
2.0
  1
+0.04
100
AcDbText
1001
ACAD
1000
R13OBJECT
1002
{
1005
127D
1002
}
  0
TEXT
  5
1575
330
15DB
100
AcDbEntity
  8
0
  6
ByBlock
 62
     1
100
AcDbText
 10
569.1265419668328
 20
-173.7910498368519
 30
0.0
 40
2.0
  1
+0
100
AcDbText
1001
ACAD
1000
R13OBJECT
1002
{
1005
127D
1002
}
  0
TEXT
  5
1576
330
15DB
100
AcDbEntity
  8
0
  6
ByBlock
 62
     1
100
AcDbText
 10
578.3646372049282
 20
-173.5427165035186
 30
0.0
 40
4.169999999999999
  1
]
100
AcDbText
1001
ACAD
1000
R13OBJECT
1002
{
1005
127D
1002
}
  0
POINT
  5
127E
330
15DB
100
AcDbEntity
  8
DEFPOINTS
  6
ByBlock
 62
     0
100
AcDbPoint
 10
524.0589599609375
 20
-130.0
 30
0.0
  0
POINT
  5
127F
330
15DB
100
AcDbEntity
  8
DEFPOINTS
  6
ByBlock
 62
     0
100
AcDbPoint
 10
534.0589599609375
 20
-130.0
 30
0.0
  0
POINT
  5
1280
330
15DB
100
AcDbEntity
  8
DEFPOINTS
  6
ByBlock
 62
     0
100
AcDbPoint
 10
534.0589599609375
 20
-172.1527165035186
 30
0.0
  0
ENDBLK
  5
1281
330
15DB
100
AcDbEntity
  8
0
100
AcDbBlockEnd
  0
BLOCK
  5
10BF
330
15DC
100
AcDbEntity
  8
0
100
AcDbBlockBegin
  2
*D28
 70
     1
 10
0.0
 20
0.0
 30
0.0
  3
*D28
  1

  0
LINE
  5
10C0
330
15DC
100
AcDbEntity
  8
0
  6
ByBlock
 62
     0
100
AcDbLine
 10
666.6214599609375
 20
-130.0625
 30
0.0
 11
666.6214599609375
 21
-221.5998289524202
 31
0.0
  0
LINE
  5
10C1
330
15DC
100
AcDbEntity
  8
0
  6
ByBlock
 62
     0
100
AcDbLine
 10
391.5589599609375
 20
-130.0625
 30
0.0
 11
391.5589599609375
 21
-221.5998289524202
 31
0.0
  0
LINE
  5
10C2
330
15DC
100
AcDbEntity
  8
0
  6
ByBlock
 62
     0
100
AcDbLine
 10
663.6214599609375
 20
-221.4198289524202
 30
0.0
 11
548.2433915284139
 21
-221.4198289524202
 31
0.0
  0
LINE
  5
10C3
330
15DC
100
AcDbEntity
  8
0
  6
ByBlock
 62
     0
100
AcDbLine
 10
394.5589599609375
 20
-221.4198289524202
 30
0.0
 11
509.9370283934611
 21
-221.4198289524202
 31
0.0
  0
SOLID
  5
10C4
330
15DC
100
AcDbEntity
  8
0
  6
ByBlock
 62
     0
100
AcDbTrace
 10
663.6214599609375
 20
-220.9198289524202
 30
0.0
 11
663.6214599609375
 21
-221.9198289524202
 31
0.0
 12
666.6214599609375
 22
-221.4198289524202
 32
0.0
 13
666.6214599609375
 23
-221.4198289524202
 33
0.0
  0
SOLID
  5
10C5
330
15DC
100
AcDbEntity
  8
0
  6
ByBlock
 62
     0
100
AcDbTrace
 10
394.5589599609375
 20
-220.9198289524202
 30
0.0
 11
394.5589599609375
 21
-221.9198289524202
 31
0.0
 12
391.5589599609375
 22
-221.4198289524202
 32
0.0
 13
391.5589599609375
 23
-221.4198289524202
 33
0.0
  0
TEXT
  5
10C6
330
15DC
100
AcDbEntity
  8
0
  6
ByBlock
 62
     1
100
AcDbText
 10
509.2463997827711
 20
-222.8088956648918
 30
0.0
 40
4.167200137414932
  1
10.83 [275]
100
AcDbText
  0
POINT
  5
10C7
330
15DC
100
AcDbEntity
  8
DEFPOINTS
  6
ByBlock
 62
     0
100
AcDbPoint
 10
666.6214599609375
 20
-130.0
 30
0.0
  0
POINT
  5
10C8
330
15DC
100
AcDbEntity
  8
DEFPOINTS
  6
ByBlock
 62
     0
100
AcDbPoint
 10
391.5589599609375
 20
-130.0
 30
0.0
  0
POINT
  5
10C9
330
15DC
100
AcDbEntity
  8
DEFPOINTS
  6
ByBlock
 62
     0
100
AcDbPoint
 10
391.5589599609375
 20
-221.4198289524202
 30
0.0
  0
ENDBLK
  5
10CA
330
15DC
100
AcDbEntity
  8
0
100
AcDbBlockEnd
  0
BLOCK
  5
1282
330
15DD
100
AcDbEntity
  8
0
100
AcDbBlockBegin
  2
*D29
 70
     1
 10
0.0
 20
0.0
 30
0.0
  3
*D29
  1

  0
LINE
  5
1283
330
15DD
100
AcDbEntity
  8
0
  6
ByBlock
 62
     0
100
AcDbLine
 10
523.9964599609375
 20
-130.0625
 30
0.0
 11
477.3175553752643
 21
-130.0625
 31
0.0
  0
LINE
  5
1284
330
15DD
100
AcDbEntity
  8
0
  6
ByBlock
 62
     0
100
AcDbLine
 10
523.9964599609375
 20
-124.0
 30
0.0
 11
477.3175553752643
 21
-124.0
 31
0.0
  0
LINE
  5
1285
330
15DD
100
AcDbEntity
  8
0
  6
ByBlock
 62
     0
100
AcDbLine
 10
477.4975553752642
 20
-133.0625
 30
0.0
 11
477.4975553752642
 21
-136.0625
 31
0.0
  0
LINE
  5
1286
330
15DD
100
AcDbEntity
  8
0
  6
ByBlock
 62
     0
100
AcDbLine
 10
477.4975553752642
 20
-121.0
 30
0.0
 11
477.4975553752642
 21
-105.2668949672452
 31
0.0
  0
LINE
  5
1287
330
15DD
100
AcDbEntity
  8
0
  6
ByBlock
 62
     0
100
AcDbLine
 10
477.4975553752642
 20
-105.2668949672452
 30
0.0
 11
480.4975553752642
 21
-105.2668949672452
 31
0.0
  0
LINE
  5
1288
330
15DD
100
AcDbEntity
  8
0
  6
ByBlock
 62
     0
100
AcDbLine
 10
477.4975553752642
 20
-130.0625
 30
0.0
 11
477.4975553752642
 21
-124.0
 31
0.0
  0
SOLID
  5
1289
330
15DD
100
AcDbEntity
  8
0
  6
ByBlock
 62
     0
100
AcDbTrace
 10
476.9975553752642
 20
-133.0625
 30
0.0
 11
477.9975553752642
 21
-133.0625
 31
0.0
 12
477.4975553752642
 22
-130.0625
 32
0.0
 13
477.4975553752642
 23
-130.0625
 33
0.0
  0
SOLID
  5
128A
330
15DD
100
AcDbEntity
  8
0
  6
ByBlock
 62
     0
100
AcDbTrace
 10
476.9975553752642
 20
-121.0
 30
0.0
 11
477.9975553752642
 21
-121.0
 31
0.0
 12
477.4975553752642
 22
-124.0
 32
0.0
 13
477.4975553752642
 23
-124.0
 33
0.0
  0
TEXT
  5
128B
330
15DD
100
AcDbEntity
  8
0
  6
ByBlock
 62
     1
100
AcDbText
 10
480.2038029681376
 20
-106.6559616797168
 30
0.0
 40
4.167200137414932
  1
.24 [6]
100
AcDbText
  0
POINT
  5
128C
330
15DD
100
AcDbEntity
  8
DEFPOINTS
  6
ByBlock
 62
     0
100
AcDbPoint
 10
524.0589599609375
 20
-130.0625
 30
0.0
  0
POINT
  5
128D
330
15DD
100
AcDbEntity
  8
DEFPOINTS
  6
ByBlock
 62
     0
100
AcDbPoint
 10
524.0589599609375
 20
-124.0
 30
0.0
  0
POINT
  5
128E
330
15DD
100
AcDbEntity
  8
DEFPOINTS
  6
ByBlock
 62
     0
100
AcDbPoint
 10
477.4975553752642
 20
-124.0
 30
0.0
  0
ENDBLK
  5
128F
330
15DD
100
AcDbEntity
  8
0
100
AcDbBlockEnd
  0
BLOCK
  5
110A
330
15DE
100
AcDbEntity
  8
0
100
AcDbBlockBegin
  2
*D30
 70
     1
 10
0.0
 20
0.0
 30
0.0
  3
*D30
  1

  0
LINE
  5
110B
330
15DE
100
AcDbEntity
  8
0
  6
ByBlock
 62
     0
100
AcDbLine
 10
-1183.0
 20
-17.5625
 30
0.0
 11
-1183.0
 21
-261.1172074832317
 31
0.0
  0
LINE
  5
110C
330
15DE
100
AcDbEntity
  8
0
  6
ByBlock
 62
     0
100
AcDbLine
 10
-983.0
 20
-17.625
 30
0.0
 11
-983.0
 21
-261.1172074832317
 31
0.0
  0
LINE
  5
110D
330
15DE
100
AcDbEntity
  8
0
  6
ByBlock
 62
     0
100
AcDbLine
 10
-1180.0
 20
-260.9372074832318
 30
0.0
 11
-1121.500896491189
 21
-260.9372074832318
 31
0.0
  0
LINE
  5
110E
330
15DE
100
AcDbEntity
  8
0
  6
ByBlock
 62
     0
100
AcDbLine
 10
-986.0
 20
-260.9372074832318
 30
0.0
 11
-1044.499103508811
 21
-260.9372074832318
 31
0.0
  0
SOLID
  5
110F
330
15DE
100
AcDbEntity
  8
0
  6
ByBlock
 62
     0
100
AcDbTrace
 10
-1180.0
 20
-260.4372074832318
 30
0.0
 11
-1180.0
 21
-261.4372074832318
 31
0.0
 12
-1183.0
 22
-260.9372074832318
 32
0.0
 13
-1183.0
 23
-260.9372074832318
 33
0.0
  0
SOLID
  5
1110
330
15DE
100
AcDbEntity
  8
0
  6
ByBlock
 62
     0
100
AcDbTrace
 10
-986.0
 20
-260.4372074832318
 30
0.0
 11
-986.0
 21
-261.4372074832318
 31
0.0
 12
-983.0
 22
-260.9372074832318
 32
0.0
 13
-983.0
 23
-260.9372074832318
 33
0.0
  0
TEXT
  5
1111
330
15DE
100
AcDbEntity
  8
0
  6
ByBlock
 62
     1
100
AcDbText
 10
-1121.596210796533
 20
-262.3262741957034
 30
0.0
 40
4.167200137414932
  1
STROKE MAX.7.87 [200]
100
AcDbText
  0
POINT
  5
1112
330
15DE
100
AcDbEntity
  8
DEFPOINTS
  6
ByBlock
 62
     0
100
AcDbPoint
 10
-1183.0
 20
-17.5
 30
0.0
  0
POINT
  5
1113
330
15DE
100
AcDbEntity
  8
DEFPOINTS
  6
ByBlock
 62
     0
100
AcDbPoint
 10
-983.0
 20
-17.5625
 30
0.0
  0
POINT
  5
1114
330
15DE
100
AcDbEntity
  8
DEFPOINTS
  6
ByBlock
 62
     0
100
AcDbPoint
 10
-983.0
 20
-260.9372074832318
 30
0.0
  0
ENDBLK
  5
1115
330
15DE
100
AcDbEntity
  8
0
100
AcDbBlockEnd
  0
BLOCK
  5
1124
330
15DF
100
AcDbEntity
  8
0
100
AcDbBlockBegin
  2
*D31
 70
     1
 10
0.0
 20
0.0
 30
0.0
  3
*D31
  1

  0
LINE
  5
1125
330
15DF
100
AcDbEntity
  8
0
  6
ByBlock
 62
     0
100
AcDbLine
 10
-494.9374999999999
 20
-130.125
 30
0.0
 11
81.80847637313251
 21
-130.125
 31
0.0
  0
LINE
  5
1126
330
15DF
100
AcDbEntity
  8
0
  6
ByBlock
 62
     0
100
AcDbLine
 10
17.9791374206543
 20
0.0
 30
0.0
 11
81.80847637313252
 21
-0.0000000000000078
 31
0.0
  0
LINE
  5
1127
330
15DF
100
AcDbEntity
  8
0
  6
ByBlock
 62
     0
100
AcDbLine
 10
81.6284763731325
 20
-127.125
 30
0.0
 11
81.62847637313252
 21
-71.11876684988661
 31
0.0
  0
LINE
  5
1128
330
15DF
100
AcDbEntity
  8
0
  6
ByBlock
 62
     0
100
AcDbLine
 10
81.62847637313252
 20
-3.000000000000007
 30
0.0
 11
81.62847637313252
 21
-59.00623315011346
 31
0.0
  0
SOLID
  5
1129
330
15DF
100
AcDbEntity
  8
0
  6
ByBlock
 62
     0
100
AcDbTrace
 10
81.12847637313249
 20
-127.125
 30
0.0
 11
82.12847637313251
 21
-127.125
 31
0.0
 12
81.6284763731325
 22
-130.125
 32
0.0
 13
81.6284763731325
 23
-130.125
 33
0.0
  0
SOLID
  5
112A
330
15DF
100
AcDbEntity
  8
0
  6
ByBlock
 62
     0
100
AcDbTrace
 10
81.12847637313251
 20
-3.000000000000007
 30
0.0
 11
82.12847637313251
 21
-3.000000000000007
 31
0.0
 12
81.62847637313252
 22
-0.0000000000000078
 32
0.0
 13
81.62847637313252
 23
-0.0000000000000078
 33
0.0
  0
TEXT
  5
112B
330
15DF
100
AcDbEntity
  8
0
  6
ByBlock
 62
     1
100
AcDbText
 10
51.16822774964718
 20
-63.67343328752839
 30
0.0
 40
4.167200137414932
  1
5.1201
100
AcDbText
  0
TEXT
  5
1577
330
15DF
100
AcDbEntity
  8
0
  6
ByBlock
 62
     1
100
AcDbText
 10
51.16822774964718
 20
-69.22970013741497
 30
0.0
 40
4.167200137414932
  1
5.1161
100
AcDbText
1001
ACAD
1000
R13OBJECT
1002
{
1005
112B
1002
}
  0
TEXT
  5
1578
330
15DF
100
AcDbEntity
  8
0
  6
ByBlock
 62
     1
100
AcDbText
 10
71.80579033494018
 20
-66.45156671247168
 30
0.0
 40
4.167200137414932
  1
 [130%%p0.05]
100
AcDbText
1001
ACAD
1000
R13OBJECT
1002
{
1005
112B
1002
}
  0
POINT
  5
112C
330
15DF
100
AcDbEntity
  8
DEFPOINTS
  6
ByBlock
 62
     0
100
AcDbPoint
 10
-495.0
 20
-130.125
 30
0.0
  0
POINT
  5
112D
330
15DF
100
AcDbEntity
  8
DEFPOINTS
  6
ByBlock
 62
     0
100
AcDbPoint
 10
17.9166374206543
 20
0.0
 30
0.0
  0
POINT
  5
112E
330
15DF
100
AcDbEntity
  8
DEFPOINTS
  6
ByBlock
 62
     0
100
AcDbPoint
 10
81.62847637313252
 20
-0.0000000000000078
 30
0.0
  0
ENDBLK
  5
112F
330
15DF
100
AcDbEntity
  8
0
100
AcDbBlockEnd
  0
BLOCK
  5
125C
330
15E0
100
AcDbEntity
  8
0
100
AcDbBlockBegin
  2
*D32
 70
     1
 10
0.0
 20
0.0
 30
0.0
  3
*D32
  1

  0
LINE
  5
125D
330
15E0
100
AcDbEntity
  8
0
  6
ByBlock
 62
     0
100
AcDbLine
 10
-673.0624999999999
 20
-130.0625
 30
0.0
 11
-693.9023606338743
 21
-130.0625
 31
0.0
  0
LINE
  5
125E
330
15E0
100
AcDbEntity
  8
0
  6
ByBlock
 62
     0
100
AcDbLine
 10
-673.0624999999999
 20
-124.0
 30
0.0
 11
-693.9023606338743
 21
-124.0
 31
0.0
  0
LINE
  5
125F
330
15E0
100
AcDbEntity
  8
0
  6
ByBlock
 62
     0
100
AcDbLine
 10
-693.7223606338744
 20
-121.0
 30
0.0
 11
-693.7223606338744
 21
-118.0
 31
0.0
  0
LINE
  5
1260
330
15E0
100
AcDbEntity
  8
0
  6
ByBlock
 62
     0
100
AcDbLine
 10
-693.7223606338744
 20
-133.0625
 30
0.0
 11
-693.7223606338744
 21
-151.2249841755738
 31
0.0
  0
LINE
  5
1261
330
15E0
100
AcDbEntity
  8
0
  6
ByBlock
 62
     0
100
AcDbLine
 10
-693.7223606338744
 20
-151.2249841755738
 30
0.0
 11
-696.7223606338743
 21
-151.2249841755738
 31
0.0
  0
LINE
  5
1262
330
15E0
100
AcDbEntity
  8
0
  6
ByBlock
 62
     0
100
AcDbLine
 10
-693.7223606338744
 20
-124.0
 30
0.0
 11
-693.7223606338744
 21
-130.0625
 31
0.0
  0
SOLID
  5
1263
330
15E0
100
AcDbEntity
  8
0
  6
ByBlock
 62
     0
100
AcDbTrace
 10
-694.2223606338743
 20
-121.0
 30
0.0
 11
-693.2223606338744
 21
-121.0
 31
0.0
 12
-693.7223606338744
 22
-124.0
 32
0.0
 13
-693.7223606338744
 23
-124.0
 33
0.0
  0
SOLID
  5
1264
330
15E0
100
AcDbEntity
  8
0
  6
ByBlock
 62
     0
100
AcDbTrace
 10
-694.2223606338743
 20
-133.0625
 30
0.0
 11
-693.2223606338744
 21
-133.0625
 31
0.0
 12
-693.7223606338744
 22
-130.0625
 32
0.0
 13
-693.7223606338744
 23
-130.0625
 33
0.0
  0
TEXT
  5
1265
330
15E0
100
AcDbEntity
  8
0
  6
ByBlock
 62
     1
100
AcDbText
 10
-719.844304236984
 20
-152.6140508880454
 30
0.0
 40
4.167200137414932
  1
.24 [6]
100
AcDbText
  0
POINT
  5
1266
330
15E0
100
AcDbEntity
  8
DEFPOINTS
  6
ByBlock
 62
     0
100
AcDbPoint
 10
-673.0
 20
-130.0625
 30
0.0
  0
POINT
  5
1267
330
15E0
100
AcDbEntity
  8
DEFPOINTS
  6
ByBlock
 62
     0
100
AcDbPoint
 10
-673.0
 20
-124.0
 30
0.0
  0
POINT
  5
1268
330
15E0
100
AcDbEntity
  8
DEFPOINTS
  6
ByBlock
 62
     0
100
AcDbPoint
 10
-693.7223606338744
 20
-124.0
 30
0.0
  0
ENDBLK
  5
1269
330
15E0
100
AcDbEntity
  8
0
100
AcDbBlockEnd
  0
BLOCK
  5
11BD
330
15E1
100
AcDbEntity
  8
0
100
AcDbBlockBegin
  2
*D33
 70
     1
 10
0.0
 20
0.0
 30
0.0
  3
*D33
  1

  0
LINE
  5
11BE
330
15E1
100
AcDbEntity
  8
0
  6
ByBlock
 62
     0
100
AcDbLine
 10
-885.0
 20
970.0625
 30
0.0
 11
-885.0
 21
1057.339758341067
 31
0.0
  0
LINE
  5
11BF
330
15E1
100
AcDbEntity
  8
0
  6
ByBlock
 62
     0
100
AcDbLine
 10
-409.0
 20
952.5624999999999
 30
0.0
 11
-409.0
 21
1057.339758341067
 31
0.0
  0
LINE
  5
11C0
330
15E1
100
AcDbEntity
  8
0
  6
ByBlock
 62
     0
100
AcDbLine
 10
-882.0
 20
1057.159758341066
 30
0.0
 11
-666.1531815674764
 21
1057.159758341066
 31
0.0
  0
LINE
  5
11C1
330
15E1
100
AcDbEntity
  8
0
  6
ByBlock
 62
     0
100
AcDbLine
 10
-412.0
 20
1057.159758341066
 30
0.0
 11
-627.8468184325236
 21
1057.159758341066
 31
0.0
  0
SOLID
  5
11C2
330
15E1
100
AcDbEntity
  8
0
  6
ByBlock
 62
     0
100
AcDbTrace
 10
-882.0
 20
1057.659758341066
 30
0.0
 11
-882.0
 21
1056.659758341067
 31
0.0
 12
-885.0
 22
1057.159758341066
 32
0.0
 13
-885.0
 23
1057.159758341066
 33
0.0
  0
SOLID
  5
11C3
330
15E1
100
AcDbEntity
  8
0
  6
ByBlock
 62
     0
100
AcDbTrace
 10
-412.0
 20
1057.659758341066
 30
0.0
 11
-412.0
 21
1056.659758341067
 31
0.0
 12
-409.0
 22
1057.159758341066
 32
0.0
 13
-409.0
 23
1057.159758341066
 33
0.0
  0
TEXT
  5
11C4
330
15E1
100
AcDbEntity
  8
0
  6
ByBlock
 62
     1
100
AcDbText
 10
-666.8438101781663
 20
1055.770691628595
 30
0.0
 40
4.167200137414932
  1
18.74 [476]
100
AcDbText
  0
POINT
  5
11C5
330
15E1
100
AcDbEntity
  8
DEFPOINTS
  6
ByBlock
 62
     0
100
AcDbPoint
 10
-885.0
 20
970.0
 30
0.0
  0
POINT
  5
11C6
330
15E1
100
AcDbEntity
  8
DEFPOINTS
  6
ByBlock
 62
     0
100
AcDbPoint
 10
-409.0
 20
952.5
 30
0.0
  0
POINT
  5
11C7
330
15E1
100
AcDbEntity
  8
DEFPOINTS
  6
ByBlock
 62
     0
100
AcDbPoint
 10
-409.0
 20
1057.159758341066
 30
0.0
  0
ENDBLK
  5
11C8
330
15E1
100
AcDbEntity
  8
0
100
AcDbBlockEnd
  0
BLOCK
  5
11F0
330
15E2
100
AcDbEntity
  8
0
100
AcDbBlockBegin
  2
*D34
 70
     1
 10
0.0
 20
0.0
 30
0.0
  3
*D34
  1

  0
LINE
  5
11F1
330
15E2
100
AcDbEntity
  8
0
  6
ByBlock
 62
     0
100
AcDbLine
 10
-509.1459960937499
 20
967.5625
 30
0.0
 11
-509.1459960937499
 21
1029.06926762936
 31
0.0
  0
LINE
  5
11F2
330
15E2
100
AcDbEntity
  8
0
  6
ByBlock
 62
     0
100
AcDbLine
 10
-409.0
 20
952.5624999999999
 30
0.0
 11
-409.0
 21
1029.06926762936
 31
0.0
  0
LINE
  5
11F3
330
15E2
100
AcDbEntity
  8
0
  6
ByBlock
 62
     0
100
AcDbLine
 10
-412.0
 20
1028.88926762936
 30
0.0
 11
-506.14599609375
 21
1028.88926762936
 31
0.0
  0
LINE
  5
11F4
330
15E2
100
AcDbEntity
  8
0
  6
ByBlock
 62
     0
100
AcDbLine
 10
-509.1459960937499
 20
1028.88926762936
 30
0.0
 11
-530.3543542108732
 21
1028.88926762936
 31
0.0
  0
SOLID
  5
11F5
330
15E2
100
AcDbEntity
  8
0
  6
ByBlock
 62
     0
100
AcDbTrace
 10
-412.0
 20
1029.38926762936
 30
0.0
 11
-412.0
 21
1028.38926762936
 31
0.0
 12
-409.0
 22
1028.88926762936
 32
0.0
 13
-409.0
 23
1028.88926762936
 33
0.0
  0
SOLID
  5
11F6
330
15E2
100
AcDbEntity
  8
0
  6
ByBlock
 62
     0
100
AcDbTrace
 10
-506.14599609375
 20
1029.38926762936
 30
0.0
 11
-506.14599609375
 21
1028.38926762936
 31
0.0
 12
-509.1459960937499
 22
1028.88926762936
 32
0.0
 13
-509.1459960937499
 23
1028.88926762936
 33
0.0
  0
TEXT
  5
11F7
330
15E2
100
AcDbEntity
  8
0
  6
ByBlock
 62
     1
100
AcDbText
 10
-675.3172923079241
 20
1027.500200916888
 30
0.0
 40
4.167200137414932
  1
REGULATED CUTTING STROKE MAX.3.94 [100]
100
AcDbText
  0
POINT
  5
11F8
330
15E2
100
AcDbEntity
  8
DEFPOINTS
  6
ByBlock
 62
     0
100
AcDbPoint
 10
-509.1459960937499
 20
967.5
 30
0.0
  0
POINT
  5
11F9
330
15E2
100
AcDbEntity
  8
DEFPOINTS
  6
ByBlock
 62
     0
100
AcDbPoint
 10
-409.0
 20
952.5
 30
0.0
  0
POINT
  5
11FA
330
15E2
100
AcDbEntity
  8
DEFPOINTS
  6
ByBlock
 62
     0
100
AcDbPoint
 10
-409.0
 20
1028.88926762936
 30
0.0
  0
ENDBLK
  5
11FB
330
15E2
100
AcDbEntity
  8
0
100
AcDbBlockEnd
  0
BLOCK
  5
129F
330
15E4
100
AcDbEntity
  8
0
100
AcDbBlockBegin
  2
*D35
 70
     1
 10
0.0
 20
0.0
 30
0.0
  3
*D35
  1

  0
LINE
  5
12A0
330
15E4
100
AcDbEntity
  8
0
  6
ByBlock
 62
     0
100
AcDbLine
 10
529.0589599609375
 20
-145.4649658203125
 30
0.0
 11
529.0589599609375
 21
-196.8031341389721
 31
0.0
  0
LINE
  5
12A1
330
15E4
100
AcDbEntity
  8
0
  6
ByBlock
 62
     0
100
AcDbLine
 10
716.5589599609375
 20
-108.0625
 30
0.0
 11
716.5589599609375
 21
-196.8031341389721
 31
0.0
  0
LINE
  5
12A2
330
15E4
100
AcDbEntity
  8
0
  6
ByBlock
 62
     0
100
AcDbLine
 10
532.0589599609375
 20
-196.6231341389721
 30
0.0
 11
602.3659307318803
 21
-196.6231341389721
 31
0.0
  0
LINE
  5
12A3
330
15E4
100
AcDbEntity
  8
0
  6
ByBlock
 62
     0
100
AcDbLine
 10
713.5589599609375
 20
-196.6231341389721
 30
0.0
 11
643.2519891899946
 21
-196.6231341389721
 31
0.0
  0
SOLID
  5
12A4
330
15E4
100
AcDbEntity
  8
0
  6
ByBlock
 62
     0
100
AcDbTrace
 10
532.0589599609375
 20
-196.1231341389721
 30
0.0
 11
532.0589599609375
 21
-197.1231341389721
 31
0.0
 12
529.0589599609375
 22
-196.6231341389721
 32
0.0
 13
529.0589599609375
 23
-196.6231341389721
 33
0.0
  0
SOLID
  5
12A5
330
15E4
100
AcDbEntity
  8
0
  6
ByBlock
 62
     0
100
AcDbTrace
 10
713.5589599609375
 20
-196.1231341389721
 30
0.0
 11
713.5589599609375
 21
-197.1231341389721
 31
0.0
 12
716.5589599609375
 22
-196.6231341389721
 32
0.0
 13
716.5589599609375
 23
-196.6231341389721
 33
0.0
  0
TEXT
  5
12A6
330
15E4
100
AcDbEntity
  8
0
  6
ByBlock
 62
     1
100
AcDbText
 10
602.2706164265352
 20
-198.0122008514437
 30
0.0
 40
4.167200137414932
  1
7.38 [187.5]
100
AcDbText
  0
POINT
  5
12A7
330
15E4
100
AcDbEntity
  8
DEFPOINTS
  6
ByBlock
 62
     0
100
AcDbPoint
 10
529.0589599609375
 20
-145.4024658203125
 30
0.0
  0
POINT
  5
12A8
330
15E4
100
AcDbEntity
  8
DEFPOINTS
  6
ByBlock
 62
     0
100
AcDbPoint
 10
716.5589599609375
 20
-108.0
 30
0.0
  0
POINT
  5
12A9
330
15E4
100
AcDbEntity
  8
DEFPOINTS
  6
ByBlock
 62
     0
100
AcDbPoint
 10
716.5589599609375
 20
-196.6231341389721
 30
0.0
  0
ENDBLK
  5
12AA
330
15E4
100
AcDbEntity
  8
0
100
AcDbBlockEnd
  0
BLOCK
  5
12BB
330
15E5
100
AcDbEntity
  8
0
100
AcDbBlockBegin
  2
*D36
 70
     1
 10
0.0
 20
0.0
 30
0.0
  3
*D36
  1

  0
LINE
  5
12BC
330
15E5
100
AcDbEntity
  8
0
  6
ByBlock
 62
     0
100
AcDbLine
 10
-685.0624999999999
 20
948.0
 30
0.0
 11
-724.9728187187388
 21
948.0
 31
0.0
  0
LINE
  5
12BD
330
15E5
100
AcDbEntity
  8
0
  6
ByBlock
 62
     0
100
AcDbLine
 10
-784.9374999999999
 20
800.0
 30
0.0
 11
-724.612818718739
 21
800.0
 31
0.0
  0
LINE
  5
12BE
330
15E5
100
AcDbEntity
  8
0
  6
ByBlock
 62
     0
100
AcDbLine
 10
-724.7928187187389
 20
945.0
 30
0.0
 11
-724.7928187187389
 21
877.6750096285066
 31
0.0
  0
LINE
  5
12BF
330
15E5
100
AcDbEntity
  8
0
  6
ByBlock
 62
     0
100
AcDbLine
 10
-724.7928187187389
 20
803.0
 30
0.0
 11
-724.7928187187389
 21
870.3249903714933
 31
0.0
  0
SOLID
  5
12C0
330
15E5
100
AcDbEntity
  8
0
  6
ByBlock
 62
     0
100
AcDbTrace
 10
-725.2928187187388
 20
945.0
 30
0.0
 11
-724.2928187187389
 21
945.0
 31
0.0
 12
-724.7928187187389
 22
948.0
 32
0.0
 13
-724.7928187187389
 23
948.0
 33
0.0
  0
SOLID
  5
12C1
330
15E5
100
AcDbEntity
  8
0
  6
ByBlock
 62
     0
100
AcDbTrace
 10
-725.2928187187389
 20
803.0
 30
0.0
 11
-724.292818718739
 21
803.0
 31
0.0
 12
-724.7928187187389
 22
800.0
 32
0.0
 13
-724.7928187187389
 23
800.0
 33
0.0
  0
TEXT
  5
12C2
330
15E5
100
AcDbEntity
  8
0
  6
ByBlock
 62
     1
100
AcDbText
 10
-742.3545907264163
 20
872.6109332875283
 30
0.0
 40
4.167200137414932
  1
5.83 [148]
100
AcDbText
  0
POINT
  5
12C3
330
15E5
100
AcDbEntity
  8
DEFPOINTS
  6
ByBlock
 62
     0
100
AcDbPoint
 10
-685.0
 20
948.0
 30
0.0
  0
POINT
  5
12C4
330
15E5
100
AcDbEntity
  8
DEFPOINTS
  6
ByBlock
 62
     0
100
AcDbPoint
 10
-784.9999999999998
 20
800.0
 30
0.0
  0
POINT
  5
12C5
330
15E5
100
AcDbEntity
  8
DEFPOINTS
  6
ByBlock
 62
     0
100
AcDbPoint
 10
-724.7928187187389
 20
800.0
 30
0.0
  0
ENDBLK
  5
12C6
330
15E5
100
AcDbEntity
  8
0
100
AcDbBlockEnd
  0
BLOCK
  5
12C8
330
15E6
100
AcDbEntity
  8
0
100
AcDbBlockBegin
  2
*D37
 70
     1
 10
0.0
 20
0.0
 30
0.0
  3
*D37
  1

  0
LINE
  5
12C9
330
15E6
100
AcDbEntity
  8
0
  6
ByBlock
 62
     0
100
AcDbLine
 10
-813.0059814453124
 20
920.0
 30
0.0
 11
-1030.362139471956
 21
920.0000000000001
 31
0.0
  0
LINE
  5
12CA
330
15E6
100
AcDbEntity
  8
0
  6
ByBlock
 62
     0
100
AcDbLine
 10
-813.0059814453124
 20
680.0
 30
0.0
 11
-1030.362139471956
 21
680.0000000000001
 31
0.0
  0
LINE
  5
12CB
330
15E6
100
AcDbEntity
  8
0
  6
ByBlock
 62
     0
100
AcDbLine
 10
-1030.182139471956
 20
917.0000000000001
 30
0.0
 11
-1030.182139471956
 21
803.6750096285066
 31
0.0
  0
LINE
  5
12CC
330
15E6
100
AcDbEntity
  8
0
  6
ByBlock
 62
     0
100
AcDbLine
 10
-1030.182139471956
 20
683.0
 30
0.0
 11
-1030.182139471956
 21
796.3249903714935
 31
0.0
  0
SOLID
  5
12CD
330
15E6
100
AcDbEntity
  8
0
  6
ByBlock
 62
     0
100
AcDbTrace
 10
-1030.682139471956
 20
917.0000000000001
 30
0.0
 11
-1029.682139471956
 21
917.0000000000001
 31
0.0
 12
-1030.182139471956
 22
920.0000000000001
 32
0.0
 13
-1030.182139471956
 23
920.0000000000001
 33
0.0
  0
SOLID
  5
12CE
330
15E6
100
AcDbEntity
  8
0
  6
ByBlock
 62
     0
100
AcDbTrace
 10
-1030.682139471956
 20
683.0
 30
0.0
 11
-1029.682139471956
 21
683.0
 31
0.0
 12
-1030.182139471956
 22
680.0000000000001
 32
0.0
 13
-1030.182139471956
 23
680.0000000000001
 33
0.0
  0
TEXT
  5
12CF
330
15E6
100
AcDbEntity
  8
0
  6
ByBlock
 62
     1
100
AcDbText
 10
-1047.743911479633
 20
798.6109332875285
 30
0.0
 40
4.167200137414932
  1
9.45 [240]
100
AcDbText
  0
POINT
  5
12D0
330
15E6
100
AcDbEntity
  8
DEFPOINTS
  6
ByBlock
 62
     0
100
AcDbPoint
 10
-812.9434814453125
 20
920.0
 30
0.0
  0
POINT
  5
12D1
330
15E6
100
AcDbEntity
  8
DEFPOINTS
  6
ByBlock
 62
     0
100
AcDbPoint
 10
-812.9434814453125
 20
680.0
 30
0.0
  0
POINT
  5
12D2
330
15E6
100
AcDbEntity
  8
DEFPOINTS
  6
ByBlock
 62
     0
100
AcDbPoint
 10
-1030.182139471956
 20
680.0000000000001
 30
0.0
  0
ENDBLK
  5
12D3
330
15E6
100
AcDbEntity
  8
0
100
AcDbBlockEnd
  0
BLOCK
  5
133A
330
15E7
100
AcDbEntity
  8
0
100
AcDbBlockBegin
  2
*D38
 70
     1
 10
0.0
 20
0.0
 30
0.0
  3
*D38
  1

  0
LINE
  5
133B
330
15E7
100
AcDbEntity
  8
0
  6
ByBlock
 62
     0
100
AcDbLine
 10
-893.0625
 20
-47.5
 30
0.0
 11
-937.0380885648705
 21
-47.5
 31
0.0
  0
LINE
  5
133C
330
15E7
100
AcDbEntity
  8
0
  6
ByBlock
 62
     0
100
AcDbLine
 10
-893.0625
 20
47.5
 30
0.0
 11
-937.0380885648705
 21
47.5
 31
0.0
  0
LINE
  5
133D
330
15E7
100
AcDbEntity
  8
0
  6
ByBlock
 62
     0
100
AcDbLine
 10
-936.8580885648706
 20
-44.5
 30
0.0
 11
-936.8580885648706
 21
44.5
 31
0.0
  0
LINE
  5
133E
330
15E7
100
AcDbEntity
  8
0
  6
ByBlock
 62
     0
100
AcDbLine
 10
-936.8580885648706
 20
47.5
 30
0.0
 11
-936.8580885648706
 21
99.35686095721576
 31
0.0
  0
LINE
  5
133F
330
15E7
100
AcDbEntity
  8
0
  6
ByBlock
 62
     0
100
AcDbLine
 10
-936.8580885648706
 20
99.35686095721576
 30
0.0
 11
-933.8580885648704
 21
99.35686095721576
 31
0.0
  0
SOLID
  5
1340
330
15E7
100
AcDbEntity
  8
0
  6
ByBlock
 62
     0
100
AcDbTrace
 10
-937.3580885648705
 20
-44.5
 30
0.0
 11
-936.3580885648705
 21
-44.5
 31
0.0
 12
-936.8580885648706
 22
-47.5
 32
0.0
 13
-936.8580885648706
 23
-47.5
 33
0.0
  0
SOLID
  5
1341
330
15E7
100
AcDbEntity
  8
0
  6
ByBlock
 62
     0
100
AcDbTrace
 10
-937.3580885648705
 20
44.5
 30
0.0
 11
-936.3580885648705
 21
44.5
 31
0.0
 12
-936.8580885648706
 22
47.5
 32
0.0
 13
-936.8580885648706
 23
47.5
 33
0.0
  0
TEXT
  5
1342
330
15E7
100
AcDbEntity
  8
0
  6
ByBlock
 62
     1
100
AcDbText
 10
-933.9534028702155
 20
100.7463943134516
 30
0.0
 40
4.167200137414932
  1
3.7400
100
AcDbText
  0
TEXT
  5
1579
330
15E7
100
AcDbEntity
  8
0
  6
ByBlock
 62
     1
100
AcDbText
 10
-933.9534028702155
 20
95.190127463565
 30
0.0
 40
4.167200137414932
  1
3.7394
100
AcDbText
1001
ACAD
1000
R13OBJECT
1002
{
1005
1342
1002
}
  0
TEXT
  5
157A
330
15E7
100
AcDbEntity
  8
0
  6
ByBlock
 62
     1
100
AcDbText
 10
-911.9267735724509
 20
97.9682608885083
 30
0.0
 40
4.167200137414932
  1
DIA [%%c95
100
AcDbText
1001
ACAD
1000
R13OBJECT
1002
{
1005
1342
1002
}
  0
TEXT
  5
157B
330
15E7
100
AcDbEntity
  8
0
  6
ByBlock
 62
     1
100
AcDbText
 10
-884.3279536021887
 20
100.3851942905491
 30
0.0
 40
2.0
  1
-0.005
100
AcDbText
1001
ACAD
1000
R13OBJECT
1002
{
1005
1342
1002
}
  0
TEXT
  5
157C
330
15E7
100
AcDbEntity
  8
0
  6
ByBlock
 62
     1
100
AcDbText
 10
-884.3279536021887
 20
97.71852762388242
 30
0.0
 40
2.0
  1
-0.020
100
AcDbText
1001
ACAD
1000
R13OBJECT
1002
{
1005
1342
1002
}
  0
TEXT
  5
157D
330
15E7
100
AcDbEntity
  8
0
  6
ByBlock
 62
     1
100
AcDbText
 10
-873.2803345545697
 20
97.96686095721575
 30
0.0
 40
4.169999999999999
  1
]
100
AcDbText
1001
ACAD
1000
R13OBJECT
1002
{
1005
1342
1002
}
  0
POINT
  5
1343
330
15E7
100
AcDbEntity
  8
DEFPOINTS
  6
ByBlock
 62
     0
100
AcDbPoint
 10
-893.0
 20
-47.5
 30
0.0
  0
POINT
  5
1344
330
15E7
100
AcDbEntity
  8
DEFPOINTS
  6
ByBlock
 62
     0
100
AcDbPoint
 10
-893.0
 20
47.5
 30
0.0
  0
POINT
  5
1345
330
15E7
100
AcDbEntity
  8
DEFPOINTS
  6
ByBlock
 62
     0
100
AcDbPoint
 10
-936.8580885648706
 20
47.5
 30
0.0
  0
ENDBLK
  5
1346
330
15E7
100
AcDbEntity
  8
0
100
AcDbBlockEnd
  0
BLOCK
  5
13C4
330
15E8
100
AcDbEntity
  8
0
100
AcDbBlockBegin
  2
*D39
 70
     1
 10
0.0
 20
0.0
 30
0.0
  3
*D39
  1

  0
LINE
  5
13C5
330
15E8
100
AcDbEntity
  8
0
  6
ByBlock
 62
     0
100
AcDbLine
 10
549.9574279785156
 20
420.0
 30
0.0
 11
754.2003167156033
 21
420.0
 31
0.0
  0
LINE
  5
13C6
330
15E8
100
AcDbEntity
  8
0
  6
ByBlock
 62
     0
100
AcDbLine
 10
666.6839599609375
 20
-130.0625
 30
0.0
 11
754.2003167156033
 21
-130.0625
 31
0.0
  0
LINE
  5
13C7
330
15E8
100
AcDbEntity
  8
0
  6
ByBlock
 62
     0
100
AcDbLine
 10
754.0203167156033
 20
417.0
 30
0.0
 11
754.0203167156033
 21
148.6437596285066
 31
0.0
  0
LINE
  5
13C8
330
15E8
100
AcDbEntity
  8
0
  6
ByBlock
 62
     0
100
AcDbLine
 10
754.0203167156033
 20
-127.0625
 30
0.0
 11
754.0203167156033
 21
141.2937403714933
 31
0.0
  0
SOLID
  5
13C9
330
15E8
100
AcDbEntity
  8
0
  6
ByBlock
 62
     0
100
AcDbTrace
 10
753.5203167156033
 20
417.0
 30
0.0
 11
754.5203167156032
 21
417.0
 31
0.0
 12
754.0203167156033
 22
420.0
 32
0.0
 13
754.0203167156033
 23
420.0
 33
0.0
  0
SOLID
  5
13CA
330
15E8
100
AcDbEntity
  8
0
  6
ByBlock
 62
     0
100
AcDbTrace
 10
753.5203167156033
 20
-127.0625
 30
0.0
 11
754.5203167156032
 21
-127.0625
 31
0.0
 12
754.0203167156033
 22
-130.0625
 32
0.0
 13
754.0203167156033
 23
-130.0625
 33
0.0
  0
TEXT
  5
13CB
330
15E8
100
AcDbEntity
  8
0
  6
ByBlock
 62
     1
100
AcDbText
 10
734.4741636901093
 20
143.5796832875283
 30
0.0
 40
4.167200137414932
  1
21.65 [550]
100
AcDbText
  0
POINT
  5
13CC
330
15E8
100
AcDbEntity
  8
DEFPOINTS
  6
ByBlock
 62
     0
100
AcDbPoint
 10
549.8949279785156
 20
420.0
 30
0.0
  0
POINT
  5
13CD
330
15E8
100
AcDbEntity
  8
DEFPOINTS
  6
ByBlock
 62
     0
100
AcDbPoint
 10
666.6214599609375
 20
-130.0625
 30
0.0
  0
POINT
  5
13CE
330
15E8
100
AcDbEntity
  8
DEFPOINTS
  6
ByBlock
 62
     0
100
AcDbPoint
 10
754.0203167156033
 20
-130.0625
 30
0.0
  0
ENDBLK
  5
13CF
330
15E8
100
AcDbEntity
  8
0
100
AcDbBlockEnd
  0
BLOCK
  5
139B
330
15E9
100
AcDbEntity
  8
0
100
AcDbBlockBegin
  2
*D40
 70
     1
 10
0.0
 20
0.0
 30
0.0
  3
*D40
  1

  0
LINE
  5
139C
330
15E9
100
AcDbEntity
  8
0
  6
ByBlock
 62
     0
100
AcDbLine
 10
550.0199279785156
 20
420.0
 30
0.0
 11
754.2003167156033
 21
420.0
 31
0.0
  0
LINE
  5
139D
330
15E9
100
AcDbEntity
  8
0
  6
ByBlock
 62
     0
100
AcDbLine
 10
529.1214599609374
 20
479.8359985351563
 30
0.0
 11
754.2003167156033
 21
479.8359985351563
 31
0.0
  0
LINE
  5
139E
330
15E9
100
AcDbEntity
  8
0
  6
ByBlock
 62
     0
100
AcDbLine
 10
754.0203167156033
 20
423.0
 30
0.0
 11
754.0203167156033
 21
446.2429896390715
 31
0.0
  0
LINE
  5
139F
330
15E9
100
AcDbEntity
  8
0
  6
ByBlock
 62
     0
100
AcDbLine
 10
754.0203167156033
 20
476.8359985351563
 30
0.0
 11
754.0203167156033
 21
453.5930088960848
 31
0.0
  0
SOLID
  5
13A0
330
15E9
100
AcDbEntity
  8
0
  6
ByBlock
 62
     0
100
AcDbTrace
 10
753.5203167156033
 20
423.0
 30
0.0
 11
754.5203167156032
 21
423.0
 31
0.0
 12
754.0203167156033
 22
420.0
 32
0.0
 13
754.0203167156033
 23
420.0
 33
0.0
  0
SOLID
  5
13A1
330
15E9
100
AcDbEntity
  8
0
  6
ByBlock
 62
     0
100
AcDbTrace
 10
753.5203167156033
 20
476.8359985351563
 30
0.0
 11
754.5203167156032
 21
476.8359985351563
 31
0.0
 12
754.0203167156033
 22
479.8359985351563
 32
0.0
 13
754.0203167156033
 23
479.8359985351563
 33
0.0
  0
TEXT
  5
13A2
330
15E9
100
AcDbEntity
  8
0
  6
ByBlock
 62
     1
100
AcDbText
 10
738.4429257257425
 20
448.5289325551065
 30
0.0
 40
4.167200137414932
  1
2.36 [60]
100
AcDbText
  0
POINT
  5
13A3
330
15E9
100
AcDbEntity
  8
DEFPOINTS
  6
ByBlock
 62
     0
100
AcDbPoint
 10
549.9574279785156
 20
420.0
 30
0.0
  0
POINT
  5
13A4
330
15E9
100
AcDbEntity
  8
DEFPOINTS
  6
ByBlock
 62
     0
100
AcDbPoint
 10
529.0589599609375
 20
479.8359985351563
 30
0.0
  0
POINT
  5
13A5
330
15E9
100
AcDbEntity
  8
DEFPOINTS
  6
ByBlock
 62
     0
100
AcDbPoint
 10
754.0203167156033
 20
479.8359985351563
 30
0.0
  0
ENDBLK
  5
13A6
330
15E9
100
AcDbEntity
  8
0
100
AcDbBlockEnd
  0
ENDSEC
  0
SECTION
  2
ENTITIES
  0
LINE
  5
1D9
330
1594
100
AcDbEntity
  8
01_VIEW_PV
  6
Continuous
 62
     7
100
AcDbLine
 10
0.0
 20
320.0
 30
0.0
 11
0.0
 21
-50.00000381469726
 31
0.0
  0
LINE
  5
1DA
330
1594
100
AcDbEntity
  8
CENTER
100
AcDbLine
 10
-500.9631958007812
 20
267.0
 30
0.0
 11
17.32132339477539
 21
267.0
 31
0.0
  0
LINE
  5
1DB
330
1594
100
AcDbEntity
  8
01_VIEW_PV
  6
Continuous
 62
     7
100
AcDbLine
 10
-983.0
 20
17.5
 30
0.0
 11
-983.0
 21
-17.5
 31
0.0
  0
LINE
  5
1DC
330
1594
100
AcDbEntity
  8
01_VIEW_PV
  6
Continuous
 62
     7
100
AcDbLine
 10
-845.0
 20
90.00004577636719
 30
0.0
 11
-845.0
 21
-130.0
 31
0.0
  0
LINE
  5
1DD
330
1594
100
AcDbEntity
  8
01_VIEW_PV
  6
Continuous
 62
     7
100
AcDbLine
 10
-893.0
 20
74.0
 30
0.0
 11
-893.0
 21
-74.0
 31
0.0
  0
LINE
  5
1DE
330
1594
100
AcDbEntity
  8
01_VIEW_PV
  6
Continuous
 62
     7
100
AcDbLine
 10
-958.0
 20
45.49999999999999
 30
0.0
 11
-958.0
 21
-45.49999999999999
 31
0.0
  0
LINE
  5
1DF
330
1594
100
AcDbEntity
  8
01_VIEW_PV
  6
Continuous
 62
     7
100
AcDbLine
 10
-495.0
 20
-108.0
 30
0.0
 11
-495.0
 21
-130.0
 31
0.0
  0
LINE
  5
1E0
330
1594
100
AcDbEntity
  8
01_VIEW_PV
  6
Continuous
 62
     7
100
AcDbLine
 10
-892.0
 20
75.0
 30
0.0
 11
-855.0
 21
75.0
 31
0.0
  0
LINE
  5
1E1
330
1594
100
AcDbEntity
  8
01_VIEW_PV
  6
Continuous
 62
     7
100
AcDbLine
 10
-892.0
 20
75.0
 30
0.0
 11
-892.0
 21
-75.0
 31
0.0
  0
LINE
  5
1E2
330
1594
100
AcDbEntity
  8
01_VIEW_PV
  6
Continuous
 62
     7
100
AcDbLine
 10
-893.0
 20
74.00003814697265
 30
0.0
 11
-892.0
 21
75.00001525878906
 31
0.0
  0
LINE
  5
1E3
330
1594
100
AcDbEntity
  8
01_VIEW_PV
  6
Continuous
 62
     7
100
AcDbLine
 10
-892.0
 20
-75.0
 30
0.0
 11
-855.0
 21
-75.0
 31
0.0
  0
LINE
  5
1E4
330
1594
100
AcDbEntity
  8
01_VIEW_PV
  6
Continuous
 62
     7
100
AcDbLine
 10
-845.0
 20
-130.0
 30
0.0
 11
-673.0
 21
-130.0
 31
0.0
  0
LINE
  5
1E5
330
1594
100
AcDbEntity
  8
01_VIEW_PV
  6
Continuous
 62
     7
100
AcDbLine
 10
-893.0
 20
-74.00003814697265
 30
0.0
 11
-892.0
 21
-75.00001525878906
 31
0.0
  0
LINE
  5
1E6
330
1594
100
AcDbEntity
  8
01_VIEW_PV
  6
Continuous
 62
     7
100
AcDbLine
 10
-956.0
 20
47.5
 30
0.0
 11
-893.0
 21
47.5
 31
0.0
  0
LINE
  5
1E7
330
1594
100
AcDbEntity
  8
01_VIEW_PV
  6
Continuous
 62
     7
100
AcDbLine
 10
-955.9999389648437
 20
-47.5
 30
0.0
 11
-893.0
 21
-47.5
 31
0.0
  0
LINE
  5
1E8
330
1594
100
AcDbEntity
  8
01_VIEW_PV
  6
Continuous
 62
     7
100
AcDbLine
 10
-956.0
 20
47.5
 30
0.0
 11
-956.0
 21
-47.5
 31
0.0
  0
LINE
  5
1E9
330
1594
100
AcDbEntity
  8
01_VIEW_PV
  6
Continuous
 62
     7
100
AcDbLine
 10
-958.0
 20
45.50001525878906
 30
0.0
 11
-956.0
 21
47.50001907348632
 31
0.0
  0
LINE
  5
1EA
330
1594
100
AcDbEntity
  8
01_VIEW_PV
  6
Continuous
 62
     7
100
AcDbLine
 10
-957.9999389648437
 20
-45.49999999999999
 30
0.0
 11
-955.9998779296874
 21
-47.49997329711914
 31
0.0
  0
LINE
  5
1EB
330
1594
100
AcDbEntity
  8
01_VIEW_PV
  6
Continuous
 62
     7
100
AcDbLine
 10
-973.0
 20
29.0
 30
0.0
 11
-963.0
 21
29.0
 31
0.0
  0
LINE
  5
1EC
330
1594
100
AcDbEntity
  8
01_VIEW_PV
  6
Continuous
 62
     7
100
AcDbLine
 10
-973.0
 20
-29.0
 30
0.0
 11
-963.0
 21
-29.0
 31
0.0
  0
LINE
  5
1ED
330
1594
100
AcDbEntity
  8
01_VIEW_PV
  6
Continuous
 62
     7
100
AcDbLine
 10
-983.0
 20
17.5
 30
0.0
 11
-973.0
 21
17.5
 31
0.0
  0
LINE
  5
1EE
330
1594
100
AcDbEntity
  8
01_VIEW_PV
  6
Continuous
 62
     7
100
AcDbLine
 10
-983.0
 20
-17.5
 30
0.0
 11
-973.0
 21
-17.5
 31
0.0
  0
LINE
  5
1EF
330
1594
100
AcDbEntity
  8
01_VIEW_PV
  6
Continuous
 62
     7
100
AcDbLine
 10
-973.0
 20
29.0
 30
0.0
 11
-973.0
 21
-29.0
 31
0.0
  0
LINE
  5
1F0
330
1594
100
AcDbEntity
  8
01_VIEW_PV
  6
Continuous
 62
     7
100
AcDbLine
 10
-963.0
 20
29.0
 30
0.0
 11
-963.0
 21
-29.0
 31
0.0
  0
LINE
  5
1F1
330
1594
100
AcDbEntity
  8
01_VIEW_PV
  6
Continuous
 62
     7
100
AcDbLine
 10
-963.0
 20
15.0
 30
0.0
 11
-960.0
 21
15.0
 31
0.0
  0
LINE
  5
1F2
330
1594
100
AcDbEntity
  8
01_VIEW_PV
  6
Continuous
 62
     7
100
AcDbLine
 10
-960.0
 20
25.0
 30
0.0
 11
-958.0
 21
25.0
 31
0.0
  0
LINE
  5
1F3
330
1594
100
AcDbEntity
  8
01_VIEW_PV
  6
Continuous
 62
     7
100
AcDbLine
 10
-960.0
 20
25.0
 30
0.0
 11
-960.0
 21
-25.0
 31
0.0
  0
LINE
  5
1F4
330
1594
100
AcDbEntity
  8
01_VIEW_PV
  6
Continuous
 62
     7
100
AcDbLine
 10
-963.0
 20
-15.0
 30
0.0
 11
-960.0
 21
-15.0
 31
0.0
  0
LINE
  5
1F5
330
1594
100
AcDbEntity
  8
01_VIEW_PV
  6
Continuous
 62
     7
100
AcDbLine
 10
-960.0
 20
-25.0
 30
0.0
 11
-958.0
 21
-25.0
 31
0.0
  0
LINE
  5
1F6
330
1594
100
AcDbEntity
  8
01_VIEW_PV
  6
Continuous
 62
     7
100
AcDbLine
 10
-855.0
 20
88.0
 30
0.0
 11
-855.0
 21
-93.0
 31
0.0
  0
LINE
  5
1F7
330
1594
100
AcDbEntity
  8
01_VIEW_PV
  6
Continuous
 62
     7
100
AcDbLine
 10
-853.0
 20
90.0
 30
0.0
 11
-845.0
 21
90.0
 31
0.0
  0
LINE
  5
1F8
330
1594
100
AcDbEntity
  8
01_VIEW_PV
  6
Continuous
 62
     7
100
AcDbLine
 10
-853.0
 20
-95.0
 30
0.0
 11
-845.0
 21
-95.0
 31
0.0
  0
LINE
  5
1F9
330
1594
100
AcDbEntity
  8
01_VIEW_PV
  6
Continuous
 62
     7
100
AcDbLine
 10
-845.0
 20
-115.0
 30
0.0
 11
-495.0
 21
-115.0
 31
0.0
  0
LINE
  5
1FA
330
1594
100
AcDbEntity
  8
01_VIEW_PV
  6
Continuous
 62
     7
100
AcDbLine
 10
-673.0
 20
-124.0
 30
0.0
 11
-673.0
 21
-130.0
 31
0.0
  0
LINE
  5
1FB
330
1594
100
AcDbEntity
  8
01_VIEW_PV
  6
Continuous
 62
     7
100
AcDbLine
 10
-663.0
 20
-124.0
 30
0.0
 11
-663.0
 21
-130.0
 31
0.0
  0
LINE
  5
1FC
330
1594
100
AcDbEntity
  8
01_VIEW_PV
  6
Continuous
 62
     7
100
AcDbLine
 10
-673.0
 20
-124.0
 30
0.0
 11
-663.0
 21
-124.0
 31
0.0
  0
LINE
  5
1FD
330
1594
100
AcDbEntity
  8
01_VIEW_PV
  6
Continuous
 62
     7
100
AcDbLine
 10
-663.0
 20
-130.0
 30
0.0
 11
-495.0
 21
-130.0
 31
0.0
  0
LINE
  5
1FE
330
1594
100
AcDbEntity
  8
01_VIEW_PV
  6
Continuous
 62
     7
100
AcDbLine
 10
-810.0
 20
-105.0999984741211
 30
0.0
 11
-780.0
 21
-105.0999984741211
 31
0.0
  0
LINE
  5
1FF
330
1594
100
AcDbEntity
  8
CENTER
100
AcDbLine
 10
-795.0
 20
-100.3112182617187
 30
0.0
 11
-795.0
 21
-135.7441253662109
 31
0.0
  0
LINE
  5
200
330
1594
100
AcDbEntity
  8
01_VIEW_PV
  6
Continuous
 62
     7
100
AcDbLine
 10
-820.9999542238366
 20
-111.0
 30
0.0
 11
-769.00000762938
 21
-111.0
 31
0.0
  0
LINE
  5
202
330
1594
100
AcDbEntity
  8
01_VIEW_PV
  6
Continuous
 62
     7
100
AcDbLine
 10
-825.0
 20
-115.0
 30
0.0
 11
-825.0
 21
-130.0
 31
0.0
  0
LINE
  5
203
330
1594
100
AcDbEntity
  8
01_VIEW_PV
  6
Continuous
 62
     7
100
AcDbLine
 10
-765.0
 20
-115.0
 30
0.0
 11
-765.0
 21
-130.0
 31
0.0
  0
LINE
  5
206
330
1594
100
AcDbEntity
  8
01_VIEW_PV
  6
Continuous
 62
     7
100
AcDbLine
 10
-765.0
 20
-115.000015258789
 30
0.0
 11
-769.0
 21
-111.0000076293945
 31
0.0
  0
LINE
  5
207
330
1594
100
AcDbEntity
  8
01_VIEW_PV
  6
Continuous
 62
     7
100
AcDbLine
 10
-825.0
 20
-114.9999923706054
 30
0.0
 11
-820.9999389648437
 21
-110.9999847412109
 31
0.0
  0
LINE
  5
208
330
1594
100
AcDbEntity
  8
01_VIEW_PV
  6
Continuous
 62
     7
100
AcDbLine
 10
-809.9999389648438
 20
-105.0999603271484
 30
0.0
 11
-815.9000244140624
 21
-111.0
 31
0.0
  0
LINE
  5
209
330
1594
100
AcDbEntity
  8
01_VIEW_PV
  6
Continuous
 62
     7
100
AcDbLine
 10
-780.0
 20
-105.0999984741211
 30
0.0
 11
-774.1000976562499
 21
-110.9999847412109
 31
0.0
  0
LINE
  5
20A
330
1594
100
AcDbEntity
  8
DASH
100
AcDbLine
 10
-786.0
 20
-105.0999984741211
 30
0.0
 11
-786.0
 21
-130.0
 31
0.0
  0
LINE
  5
20B
330
1594
100
AcDbEntity
  8
DASH
100
AcDbLine
 10
-804.0
 20
-105.0999984741211
 30
0.0
 11
-804.0
 21
-130.0
 31
0.0
  0
LINE
  5
20C
330
1594
100
AcDbEntity
  8
01_VIEW_PV
  6
Continuous
 62
     7
100
AcDbLine
 10
-520.0
 20
-105.0999984741211
 30
0.0
 11
-550.0
 21
-105.0999984741211
 31
0.0
  0
LINE
  5
20D
330
1594
100
AcDbEntity
  8
CENTER
100
AcDbLine
 10
-535.0
 20
-100.3112182617187
 30
0.0
 11
-535.0
 21
-135.7441253662109
 31
0.0
  0
LINE
  5
20E
330
1594
100
AcDbEntity
  8
01_VIEW_PV
  6
Continuous
 62
     7
100
AcDbLine
 10
-505.0
 20
-115.0
 30
0.0
 11
-505.0
 21
-130.0
 31
0.0
  0
LINE
  5
20F
330
1594
100
AcDbEntity
  8
01_VIEW_PV
  6
Continuous
 62
     7
100
AcDbLine
 10
-565.0
 20
-115.0
 30
0.0
 11
-565.0
 21
-130.0
 31
0.0
  0
LINE
  5
212
330
1594
100
AcDbEntity
  8
01_VIEW_PV
  6
Continuous
 62
     7
100
AcDbLine
 10
-564.9999389648437
 20
-114.9999923706054
 30
0.0
 11
-560.9999389648437
 21
-111.0000076293945
 31
0.0
  0
LINE
  5
213
330
1594
100
AcDbEntity
  8
01_VIEW_PV
  6
Continuous
 62
     7
100
AcDbLine
 10
-504.9999389648437
 20
-114.9999694824219
 30
0.0
 11
-508.9999389648437
 21
-110.9999618530273
 31
0.0
  0
LINE
  5
214
330
1594
100
AcDbEntity
  8
01_VIEW_PV
  6
Continuous
 62
     7
100
AcDbLine
 10
-520.0000610351562
 20
-105.0999679565429
 30
0.0
 11
-514.0999755859374
 21
-111.0
 31
0.0
  0
LINE
  5
215
330
1594
100
AcDbEntity
  8
01_VIEW_PV
  6
Continuous
 62
     7
100
AcDbLine
 10
-550.0
 20
-105.0999908447265
 30
0.0
 11
-555.8999023437499
 21
-110.9999771118164
 31
0.0
  0
LINE
  5
216
330
1594
100
AcDbEntity
  8
DASH
100
AcDbLine
 10
-544.0
 20
-105.0999984741211
 30
0.0
 11
-544.0
 21
-130.0
 31
0.0
  0
LINE
  5
217
330
1594
100
AcDbEntity
  8
DASH
100
AcDbLine
 10
-526.0
 20
-105.0999984741211
 30
0.0
 11
-526.0
 21
-130.0
 31
0.0
  0
LINE
  5
218
330
1594
100
AcDbEntity
  8
01_VIEW_PV
  6
Continuous
 62
     7
100
AcDbLine
 10
-834.6077270507812
 20
108.0
 30
0.0
 11
-450.0
 21
108.0
 31
0.0
  0
LINE
  5
219
330
1594
100
AcDbEntity
  8
01_VIEW_PV
  6
Continuous
 62
     7
100
AcDbLine
 10
-845.0000610351562
 20
90.00005340576171
 30
0.0
 11
-834.6077880859375
 21
107.9999923706054
 31
0.0
  0
LINE
  5
21A
330
1594
100
AcDbEntity
  8
01_VIEW_PV
  6
Continuous
 62
     7
100
AcDbLine
 10
-785.0
 20
50.0
 30
0.0
 11
-785.0
 21
-15.0
 31
0.0
  0
LINE
  5
21B
330
1594
100
AcDbEntity
  8
01_VIEW_PV
  6
Continuous
 62
     7
100
AcDbLine
 10
-675.0
 20
66.0
 30
0.0
 11
-675.0
 21
-56.0
 31
0.0
  0
LINE
  5
21C
330
1594
100
AcDbEntity
  8
01_VIEW_PV
  6
Continuous
 62
     7
100
AcDbLine
 10
-555.0
 20
66.0
 30
0.0
 11
-555.0
 21
-56.0
 31
0.0
  0
LINE
  5
21D
330
1594
100
AcDbEntity
  8
01_VIEW_PV
  6
Continuous
 62
     7
100
AcDbLine
 10
-671.0
 20
70.0
 30
0.0
 11
-559.0
 21
70.0
 31
0.0
  0
LINE
  5
21E
330
1594
100
AcDbEntity
  8
01_VIEW_PV
  6
Continuous
 62
     7
100
AcDbLine
 10
-671.0
 20
-60.0
 30
0.0
 11
-559.0
 21
-60.0
 31
0.0
  0
LINE
  5
21F
330
1594
100
AcDbEntity
  8
01_VIEW_PV
  6
Continuous
 62
     7
100
AcDbLine
 10
-673.0
 20
-65.0
 30
0.0
 11
-557.0
 21
-65.0
 31
0.0
  0
LINE
  5
220
330
1594
100
AcDbEntity
  8
01_VIEW_PV
  6
Continuous
 62
     7
100
AcDbLine
 10
-673.0
 20
72.0
 30
0.0
 11
-557.0
 21
72.0
 31
0.0
  0
LINE
  5
221
330
1594
100
AcDbEntity
  8
01_VIEW_PV
  6
Continuous
 62
     7
100
AcDbLine
 10
-677.0
 20
68.0
 30
0.0
 11
-677.0
 21
-61.0
 31
0.0
  0
LINE
  5
222
330
1594
100
AcDbEntity
  8
01_VIEW_PV
  6
Continuous
 62
     7
100
AcDbLine
 10
-553.0
 20
68.0
 30
0.0
 11
-553.0
 21
-80.0
 31
0.0
  0
LINE
  5
223
330
1594
100
AcDbEntity
  8
01_VIEW_PV
  6
Continuous
 62
     7
100
AcDbLine
 10
-785.0
 20
50.0
 30
0.0
 11
-677.0
 21
50.0
 31
0.0
  0
LINE
  5
224
330
1594
100
AcDbEntity
  8
01_VIEW_PV
  6
Continuous
 62
     7
100
AcDbLine
 10
-775.0
 20
-30.0
 30
0.0
 11
-677.0
 21
-30.0
 31
0.0
  0
LINE
  5
225
330
1594
100
AcDbEntity
  8
01_VIEW_PV
  6
Continuous
 62
     7
100
AcDbLine
 10
-815.0
 20
-40.0
 30
0.0
 11
-815.0
 21
-80.0
 31
0.0
  0
LINE
  5
226
330
1594
100
AcDbEntity
  8
01_VIEW_PV
  6
Continuous
 62
     7
100
AcDbLine
 10
-775.0
 20
-15.0
 30
0.0
 11
-775.0
 21
-80.0
 31
0.0
  0
LINE
  5
227
330
1594
100
AcDbEntity
  8
01_VIEW_PV
  6
Continuous
 62
     7
100
AcDbLine
 10
-845.0
 20
-80.0
 30
0.0
 11
-498.0
 21
-80.0
 31
0.0
  0
LINE
  5
228
330
1594
100
AcDbEntity
  8
01_VIEW_PV
  6
Continuous
 62
     7
100
AcDbLine
 10
-845.0
 20
65.00000762939453
 30
0.0
 11
-785.0
 21
50.00001144409179
 31
0.0
  0
LINE
  5
229
330
1594
100
AcDbEntity
  8
01_VIEW_PV
  6
Continuous
 62
     7
100
AcDbLine
 10
-845.0
 20
-64.99999237060547
 30
0.0
 11
-814.9999389648437
 21
-47.49997329711914
 31
0.0
  0
LINE
  5
22A
330
1594
100
AcDbEntity
  8
01_VIEW_PV
  6
Continuous
 62
     7
100
AcDbLine
 10
-785.0
 20
-15.0
 30
0.0
 11
-775.0
 21
-15.0
 31
0.0
  0
LINE
  5
22B
330
1594
100
AcDbEntity
  8
01_VIEW_PV
  6
Continuous
 62
     7
100
AcDbLine
 10
-785.0000610351562
 20
-15.00000667572021
 30
0.0
 11
-815.0000610351563
 21
-40.00001907348632
 31
0.0
  0
LINE
  5
22C
330
1594
100
AcDbEntity
  8
CENTER
100
AcDbLine
 10
-815.0
 20
174.0125122070312
 30
0.0
 11
-815.0
 21
97.27469635009766
 31
0.0
  0
LINE
  5
22D
330
1594
100
AcDbEntity
  8
CENTER
100
AcDbLine
 10
-851.3405151367187
 20
135.0
 30
0.0
 11
-779.9320678710937
 21
135.0
 31
0.0
  0
LINE
  5
22E
330
1594
100
AcDbEntity
  8
01_VIEW_PV
  6
Continuous
 62
     7
100
AcDbLine
 10
-800.0
 20
115.0
 30
0.0
 11
-800.0
 21
108.0
 31
0.0
  0
LINE
  5
22F
330
1594
100
AcDbEntity
  8
01_VIEW_PV
  6
Continuous
 62
     7
100
AcDbLine
 10
-830.0
 20
115.0
 30
0.0
 11
-830.0
 21
108.0
 31
0.0
  0
LINE
  5
230
330
1594
100
AcDbEntity
  8
01_VIEW_PV
  6
Continuous
 62
     7
100
AcDbLine
 10
-826.0
 20
119.0
 30
0.0
 11
-804.0
 21
119.0
 31
0.0
  0
LINE
  5
231
330
1594
100
AcDbEntity
  8
01_VIEW_PV
  6
Continuous
 62
     7
100
AcDbLine
 10
-490.0
 20
108.0
 30
0.0
 11
-490.0
 21
-108.0
 31
0.0
  0
LINE
  5
232
330
1594
100
AcDbEntity
  8
01_VIEW_PV
  6
Continuous
 62
     7
100
AcDbLine
 10
-465.0
 20
108.0
 30
0.0
 11
-465.0
 21
-108.0
 31
0.0
  0
LINE
  5
233
330
1594
100
AcDbEntity
  8
01_VIEW_PV
  6
Continuous
 62
     7
100
AcDbLine
 10
-530.0
 20
108.0
 30
0.0
 11
-530.0
 21
50.0
 31
0.0
  0
LINE
  5
234
330
1594
100
AcDbEntity
  8
01_VIEW_PV
  6
Continuous
 62
     7
100
AcDbLine
 10
-553.0
 20
50.0
 30
0.0
 11
-530.0
 21
50.0
 31
0.0
  0
LINE
  5
235
330
1594
100
AcDbEntity
  8
01_VIEW_PV
  6
Continuous
 62
     7
100
AcDbLine
 10
-553.0
 20
-15.0
 30
0.0
 11
-508.0
 21
-15.0
 31
0.0
  0
LINE
  5
236
330
1594
100
AcDbEntity
  8
01_VIEW_PV
  6
Continuous
 62
     7
100
AcDbLine
 10
-508.0
 20
-15.0
 30
0.0
 11
-508.0
 21
-80.0
 31
0.0
  0
LINE
  5
237
330
1594
100
AcDbEntity
  8
01_VIEW_PV
  6
Continuous
 62
     7
100
AcDbLine
 10
-498.0
 20
-80.0
 30
0.0
 11
-498.0
 21
-115.0
 31
0.0
  0
LINE
  5
238
330
1594
100
AcDbEntity
  8
01_VIEW_PV
  6
Continuous
 62
     7
100
AcDbLine
 10
-529.9999389648437
 20
49.99999237060547
 30
0.0
 11
-504.9999694824219
 21
107.9999923706054
 31
0.0
  0
LINE
  5
239
330
1594
100
AcDbEntity
  8
01_VIEW_PV
  6
Continuous
 62
     7
100
AcDbLine
 10
-115.0
 20
395.0
 30
0.0
 11
-115.0
 21
135.0
 31
0.0
  0
LINE
  5
23A
330
1594
100
AcDbEntity
  8
01_VIEW_PV
  6
Continuous
 62
     7
100
AcDbLine
 10
-19.0
 20
390.0000305175781
 30
0.0
 11
-19.0
 21
-120.0
 31
0.0
  0
LINE
  5
23B
330
1594
100
AcDbEntity
  8
01_VIEW_PV
  6
Continuous
 62
     7
100
AcDbLine
 10
-46.0
 20
395.0000305175781
 30
0.0
 11
-46.0
 21
-125.0
 31
0.0
  0
LINE
  5
23C
330
1594
100
AcDbEntity
  8
01_VIEW_PV
  6
Continuous
 62
     7
100
AcDbLine
 10
-56.0
 20
395.0
 30
0.0
 11
-56.0
 21
-125.0
 31
0.0
  0
LINE
  5
23D
330
1594
100
AcDbEntity
  8
01_VIEW_PV
  6
Continuous
 62
     7
100
AcDbLine
 10
-91.0
 20
-125.0
 30
0.0
 11
-46.0
 21
-125.0
 31
0.0
  0
LINE
  5
23E
330
1594
100
AcDbEntity
  8
01_VIEW_PV
  6
Continuous
 62
     7
100
AcDbLine
 10
-91.0
 20
395.0
 30
0.0
 11
-91.0
 21
-125.0
 31
0.0
  0
LINE
  5
23F
330
1594
100
AcDbEntity
  8
01_VIEW_PV
  6
Continuous
 62
     7
100
AcDbLine
 10
-96.0
 20
395.0
 30
0.0
 11
-96.0
 21
-102.3321151733398
 31
0.0
  0
LINE
  5
240
330
1594
100
AcDbEntity
  8
01_VIEW_PV
  6
Continuous
 62
     7
100
AcDbLine
 10
0.000000971322379
 20
-50.0
 30
0.0
 11
-18.99999618530273
 21
-120.0
 31
0.0
  0
LINE
  5
241
330
1594
100
AcDbEntity
  8
01_VIEW_PV
  6
Continuous
 62
     7
100
AcDbLine
 10
-19.0
 20
-119.9999923706055
 30
0.0
 11
-45.99999618530273
 21
-124.9999923706054
 31
0.0
  0
LINE
  5
242
330
1594
100
AcDbEntity
  8
01_VIEW_PV
  6
Continuous
 62
     7
100
AcDbLine
 10
-450.0
 20
-93.0
 30
0.0
 11
-375.0
 21
-93.0
 31
0.0
  0
LINE
  5
243
330
1594
100
AcDbEntity
  8
01_VIEW_PV
  6
Continuous
 62
     7
100
AcDbLine
 10
-93.11833953857421
 20
-110.1715621948242
 30
0.0
 11
-90.57141876220702
 21
-128.0
 31
0.0
  0
LINE
  5
244
330
1594
100
AcDbEntity
  8
01_VIEW_PV
  6
Continuous
 62
     7
100
AcDbLine
 10
-495.0
 20
-108.0
 30
0.0
 11
-207.0
 21
-108.0
 31
0.0
  0
LINE
  5
245
330
1594
100
AcDbEntity
  8
01_VIEW_PV
  6
Continuous
 62
     7
100
AcDbLine
 10
-121.0
 20
-93.0
 30
0.0
 11
-121.0
 21
-108.0
 31
0.0
  0
LINE
  5
246
330
1594
100
AcDbEntity
  8
01_VIEW_PV
  6
Continuous
 62
     7
100
AcDbLine
 10
-457.0
 20
-68.0
 30
0.0
 11
-175.0
 21
-68.0
 31
0.0
  0
LINE
  5
247
330
1594
100
AcDbEntity
  8
01_VIEW_PV
  6
Continuous
 62
     7
100
AcDbLine
 10
-457.0
 20
-78.0
 30
0.0
 11
-175.0
 21
-78.0
 31
0.0
  0
LINE
  5
248
330
1594
100
AcDbEntity
  8
01_VIEW_PV
  6
Continuous
 62
     7
100
AcDbLine
 10
-375.0
 20
-78.0
 30
0.0
 11
-375.0
 21
-96.0
 31
0.0
  0
LINE
  5
249
330
1594
100
AcDbEntity
  8
01_VIEW_PV
  6
Continuous
 62
     7
100
AcDbLine
 10
-345.0
 20
-78.0
 30
0.0
 11
-345.0
 21
-96.0
 31
0.0
  0
LINE
  5
24A
330
1594
100
AcDbEntity
  8
01_VIEW_PV
  6
Continuous
 62
     7
100
AcDbLine
 10
-265.0
 20
-78.0
 30
0.0
 11
-265.0
 21
-96.0
 31
0.0
  0
LINE
  5
24B
330
1594
100
AcDbEntity
  8
01_VIEW_PV
  6
Continuous
 62
     7
100
AcDbLine
 10
-235.0
 20
-78.0
 30
0.0
 11
-235.0
 21
-96.0
 31
0.0
  0
LINE
  5
24C
330
1594
100
AcDbEntity
  8
01_VIEW_PV
  6
Continuous
 62
     7
100
AcDbLine
 10
-375.0
 20
-96.0
 30
0.0
 11
-345.0
 21
-96.0
 31
0.0
  0
LINE
  5
24D
330
1594
100
AcDbEntity
  8
01_VIEW_PV
  6
Continuous
 62
     7
100
AcDbLine
 10
-265.0
 20
-96.0
 30
0.0
 11
-235.0
 21
-96.0
 31
0.0
  0
LINE
  5
24E
330
1594
100
AcDbEntity
  8
01_VIEW_PV
  6
Continuous
 62
     7
100
AcDbLine
 10
-345.0
 20
-93.0
 30
0.0
 11
-265.0
 21
-93.0
 31
0.0
  0
LINE
  5
24F
330
1594
100
AcDbEntity
  8
01_VIEW_PV
  6
Continuous
 62
     7
100
AcDbLine
 10
-235.0
 20
-93.0
 30
0.0
 11
-112.9173355102539
 21
-93.0
 31
0.0
  0
LINE
  5
250
330
1594
100
AcDbEntity
  8
01_VIEW_PV
  6
Continuous
 62
     7
100
AcDbLine
 10
-145.0
 20
93.0
 30
0.0
 11
-145.0
 21
-93.0
 31
0.0
  0
LINE
  5
251
330
1594
100
AcDbEntity
  8
01_VIEW_PV
  6
Continuous
 62
     7
100
AcDbLine
 10
-167.0
 20
93.0
 30
0.0
 11
-167.0
 21
-93.0
 31
0.0
  0
LINE
  5
252
330
1594
100
AcDbEntity
  8
01_VIEW_PV
  6
Continuous
 62
     7
100
AcDbLine
 10
-217.0
 20
-68.0
 30
0.0
 11
-217.0
 21
-78.0
 31
0.0
  0
LINE
  5
253
330
1594
100
AcDbEntity
  8
01_VIEW_PV
  6
Continuous
 62
     7
100
AcDbLine
 10
-217.0
 20
-71.0
 30
0.0
 11
-168.7550048828125
 21
-71.0
 31
0.0
  0
LINE
  5
254
330
1594
100
AcDbEntity
  8
01_VIEW_PV
  6
Continuous
 62
     7
100
AcDbLine
 10
-90.57142639160156
 20
-128.0
 30
0.0
 11
-65.57142639160156
 21
-128.0
 31
0.0
  0
LINE
  5
255
330
1594
100
AcDbEntity
  8
01_VIEW_PV
  6
Continuous
 62
     7
100
AcDbLine
 10
-65.57142639160156
 20
-125.0
 30
0.0
 11
-65.57142639160156
 21
-128.0
 31
0.0
  0
LINE
  5
256
330
1594
100
AcDbEntity
  8
CENTER
100
AcDbLine
 10
-157.0
 20
-88.38682556152344
 30
0.0
 11
-157.0
 21
-134.2542724609375
 31
0.0
  0
LINE
  5
257
330
1594
100
AcDbEntity
  8
01_VIEW_PV
  6
Continuous
 62
     7
100
AcDbLine
 10
-168.0
 20
-128.0
 30
0.0
 11
-146.0
 21
-128.0
 31
0.0
  0
LINE
  5
258
330
1594
100
AcDbEntity
  8
01_VIEW_PV
  6
Continuous
 62
     7
100
AcDbLine
 10
-146.0
 20
-93.0
 30
0.0
 11
-146.0
 21
-128.0
 31
0.0
  0
LINE
  5
259
330
1594
100
AcDbEntity
  8
01_VIEW_PV
  6
Continuous
 62
     7
100
AcDbLine
 10
-168.0
 20
-93.0
 30
0.0
 11
-168.0
 21
-128.0
 31
0.0
  0
LINE
  5
25A
330
1594
100
AcDbEntity
  8
01_VIEW_PV
  6
Continuous
 62
     7
100
AcDbLine
 10
-153.0
 20
-93.0
 30
0.0
 11
-153.0
 21
-128.0
 31
0.0
  0
LINE
  5
25B
330
1594
100
AcDbEntity
  8
01_VIEW_PV
  6
Continuous
 62
     7
100
AcDbLine
 10
-161.0
 20
-93.0
 30
0.0
 11
-161.0
 21
-128.0
 31
0.0
  0
LINE
  5
25C
330
1594
100
AcDbEntity
  8
01_VIEW_PV
  6
Continuous
 62
     7
100
AcDbLine
 10
-146.0
 20
-108.0
 30
0.0
 11
-121.0
 21
-108.0
 31
0.0
  0
LINE
  5
25D
330
1594
100
AcDbEntity
  8
01_VIEW_PV
  6
Continuous
 62
     7
100
AcDbLine
 10
-189.0
 20
-93.0
 30
0.0
 11
-189.0
 21
-118.0
 31
0.0
  0
LINE
  5
25E
330
1594
100
AcDbEntity
  8
01_VIEW_PV
  6
Continuous
 62
     7
100
AcDbLine
 10
-207.0
 20
-93.0
 30
0.0
 11
-207.0
 21
-118.0
 31
0.0
  0
LINE
  5
25F
330
1594
100
AcDbEntity
  8
01_VIEW_PV
  6
Continuous
 62
     7
100
AcDbLine
 10
-207.0
 20
-118.0
 30
0.0
 11
-189.0
 21
-118.0
 31
0.0
  0
LINE
  5
260
330
1594
100
AcDbEntity
  8
01_VIEW_PV
  6
Continuous
 62
     7
100
AcDbLine
 10
-189.0
 20
-108.0
 30
0.0
 11
-168.0
 21
-108.0
 31
0.0
  0
LINE
  5
261
330
1594
100
AcDbEntity
  8
01_VIEW_PV
  6
Continuous
 62
     7
100
AcDbLine
 10
-450.0
 20
93.0
 30
0.0
 11
-375.0
 21
93.0
 31
0.0
  0
LINE
  5
262
330
1594
100
AcDbEntity
  8
01_VIEW_PV
  6
Continuous
 62
     7
100
AcDbLine
 10
-457.0
 20
68.0
 30
0.0
 11
-175.0
 21
68.0
 31
0.0
  0
LINE
  5
263
330
1594
100
AcDbEntity
  8
01_VIEW_PV
  6
Continuous
 62
     7
100
AcDbLine
 10
-457.0
 20
78.0
 30
0.0
 11
-175.0
 21
78.0
 31
0.0
  0
LINE
  5
264
330
1594
100
AcDbEntity
  8
01_VIEW_PV
  6
Continuous
 62
     7
100
AcDbLine
 10
-375.0
 20
78.0
 30
0.0
 11
-375.0
 21
96.0
 31
0.0
  0
LINE
  5
265
330
1594
100
AcDbEntity
  8
01_VIEW_PV
  6
Continuous
 62
     7
100
AcDbLine
 10
-345.0
 20
78.0
 30
0.0
 11
-345.0
 21
96.0
 31
0.0
  0
LINE
  5
266
330
1594
100
AcDbEntity
  8
01_VIEW_PV
  6
Continuous
 62
     7
100
AcDbLine
 10
-265.0
 20
78.0
 30
0.0
 11
-265.0
 21
96.0
 31
0.0
  0
LINE
  5
267
330
1594
100
AcDbEntity
  8
01_VIEW_PV
  6
Continuous
 62
     7
100
AcDbLine
 10
-235.0
 20
78.0
 30
0.0
 11
-235.0
 21
96.0
 31
0.0
  0
LINE
  5
268
330
1594
100
AcDbEntity
  8
01_VIEW_PV
  6
Continuous
 62
     7
100
AcDbLine
 10
-375.0
 20
96.0
 30
0.0
 11
-345.0
 21
96.0
 31
0.0
  0
LINE
  5
269
330
1594
100
AcDbEntity
  8
01_VIEW_PV
  6
Continuous
 62
     7
100
AcDbLine
 10
-265.0
 20
96.0
 30
0.0
 11
-235.0
 21
96.0
 31
0.0
  0
LINE
  5
26A
330
1594
100
AcDbEntity
  8
01_VIEW_PV
  6
Continuous
 62
     7
100
AcDbLine
 10
-345.0
 20
93.0
 30
0.0
 11
-265.0
 21
93.0
 31
0.0
  0
LINE
  5
26B
330
1594
100
AcDbEntity
  8
01_VIEW_PV
  6
Continuous
 62
     7
100
AcDbLine
 10
-235.0
 20
93.0
 30
0.0
 11
-116.0
 21
93.0
 31
0.0
  0
LINE
  5
26C
330
1594
100
AcDbEntity
  8
01_VIEW_PV
  6
Continuous
 62
     7
100
AcDbLine
 10
-217.0
 20
68.0
 30
0.0
 11
-217.0
 21
78.0
 31
0.0
  0
LINE
  5
26D
330
1594
100
AcDbEntity
  8
01_VIEW_PV
  6
Continuous
 62
     7
100
AcDbLine
 10
-217.0
 20
71.0
 30
0.0
 11
-168.7550048828125
 21
71.0
 31
0.0
  0
LINE
  5
26E
330
1594
100
AcDbEntity
  8
CENTER
100
AcDbLine
 10
-157.0
 20
88.38682556152344
 30
0.0
 11
-157.0
 21
134.2542724609375
 31
0.0
  0
LINE
  5
26F
330
1594
100
AcDbEntity
  8
01_VIEW_PV
  6
Continuous
 62
     7
100
AcDbLine
 10
-168.0
 20
128.0
 30
0.0
 11
-146.0
 21
128.0
 31
0.0
  0
LINE
  5
270
330
1594
100
AcDbEntity
  8
01_VIEW_PV
  6
Continuous
 62
     7
100
AcDbLine
 10
-146.0
 20
93.0
 30
0.0
 11
-146.0
 21
128.0
 31
0.0
  0
LINE
  5
271
330
1594
100
AcDbEntity
  8
01_VIEW_PV
  6
Continuous
 62
     7
100
AcDbLine
 10
-168.0
 20
93.0
 30
0.0
 11
-168.0
 21
128.0
 31
0.0
  0
LINE
  5
272
330
1594
100
AcDbEntity
  8
01_VIEW_PV
  6
Continuous
 62
     7
100
AcDbLine
 10
-153.0
 20
93.0
 30
0.0
 11
-153.0
 21
128.0
 31
0.0
  0
LINE
  5
273
330
1594
100
AcDbEntity
  8
01_VIEW_PV
  6
Continuous
 62
     7
100
AcDbLine
 10
-161.0
 20
93.0
 30
0.0
 11
-161.0
 21
128.0
 31
0.0
  0
LINE
  5
274
330
1594
100
AcDbEntity
  8
01_VIEW_PV
  6
Continuous
 62
     7
100
AcDbLine
 10
-545.0
 20
130.0
 30
0.0
 11
-488.4752086140681
 21
130.0
 31
0.0
  0
LINE
  5
275
330
1594
100
AcDbEntity
  8
CENTER
100
AcDbLine
 10
-470.0
 20
159.4994354248047
 30
0.0
 11
-470.0
 21
87.4506607055664
 31
0.0
  0
LINE
  5
278
330
1594
100
AcDbEntity
  8
01_VIEW_PV
  6
Continuous
 62
     7
100
AcDbLine
 10
-488.4752086140681
 20
113.0
 30
0.0
 11
-451.5247913859319
 21
113.0
 31
0.0
  0
LINE
  5
27C
330
1594
100
AcDbEntity
  8
01_VIEW_PV
  6
Continuous
 62
     7
100
AcDbLine
 10
-545.0
 20
130.0
 30
0.0
 11
-545.0
 21
108.0
 31
0.0
  0
LINE
  5
27D
330
1594
100
AcDbEntity
  8
01_VIEW_PV
  6
Continuous
 62
     7
100
AcDbLine
 10
-451.5247913859318
 20
130.0
 30
0.0
 11
-121.0
 21
130.0
 31
0.0
  0
LINE
  5
27E
330
1594
100
AcDbEntity
  8
01_VIEW_PV
  6
Continuous
 62
     7
100
AcDbLine
 10
-545.0
 20
128.0
 30
0.0
 11
-488.4752086140681
 21
128.0
 31
0.0
  0
LINE
  5
27F
330
1594
100
AcDbEntity
  8
01_VIEW_PV
  6
Continuous
 62
     7
100
AcDbLine
 10
-141.0
 20
93.0
 30
0.0
 11
-95.99999237060547
 21
138.0
 31
0.0
  0
LINE
  5
280
330
1594
100
AcDbEntity
  8
01_VIEW_PV
  6
Continuous
 62
     7
100
AcDbLine
 10
-450.0
 20
-93.0
 30
0.0
 11
-450.0
 21
-108.0
 31
0.0
  0
LINE
  5
281
330
1594
100
AcDbEntity
  8
01_VIEW_PV
  6
Continuous
 62
     7
100
AcDbLine
 10
-450.0
 20
108.0
 30
0.0
 11
-450.0
 21
93.0
 31
0.0
  0
LINE
  5
282
330
1594
100
AcDbEntity
  8
01_VIEW_PV
  6
Continuous
 62
     7
100
AcDbLine
 10
-121.0
 20
130.0
 30
0.0
 11
-121.0
 21
113.0
 31
0.0
  0
LINE
  5
283
330
1594
100
AcDbEntity
  8
01_VIEW_PV
  6
Continuous
 62
     7
100
AcDbLine
 10
-451.5247913859318
 20
128.0
 30
0.0
 11
-121.0
 21
128.0
 31
0.0
  0
LINE
  5
284
330
1594
100
AcDbEntity
  8
01_VIEW_PV
  6
Continuous
 62
     7
100
AcDbLine
 10
-115.0
 20
135.0
 30
0.0
 11
-99.0
 21
135.0
 31
0.0
  0
LINE
  5
285
330
1594
100
AcDbEntity
  8
01_VIEW_PV
  6
Continuous
 62
     7
100
AcDbLine
 10
-115.0
 20
395.0
 30
0.0
 11
-46.0
 21
395.0
 31
0.0
  0
LINE
  5
286
330
1594
100
AcDbEntity
  8
01_VIEW_PV
  6
Continuous
 62
     7
100
AcDbLine
 10
-0.0000029977868508
 20
320.0
 30
0.0
 11
-19.0
 21
390.0
 31
0.0
  0
LINE
  5
287
330
1594
100
AcDbEntity
  8
01_VIEW_PV
  6
Continuous
 62
     7
100
AcDbLine
 10
-18.99999809265137
 20
390.0
 30
0.0
 11
-45.9999885559082
 21
395.0
 31
0.0
  0
LINE
  5
288
330
1594
100
AcDbEntity
  8
01_VIEW_PV
  6
Continuous
 62
     7
100
AcDbLine
 10
-419.7999877929687
 20
362.4400024414062
 30
0.0
 11
-419.7999877929687
 21
171.5599975585937
 31
0.0
  0
LINE
  5
289
330
1594
100
AcDbEntity
  8
01_VIEW_PV
  6
Continuous
 62
     7
100
AcDbLine
 10
-349.7999877929688
 20
382.4400024414062
 30
0.0
 11
-349.7999877929688
 21
151.5599975585937
 31
0.0
  0
LINE
  5
28A
330
1594
100
AcDbEntity
  8
01_VIEW_PV
  6
Continuous
 62
     7
100
AcDbLine
 10
-399.7999877929688
 20
382.4400024414062
 30
0.0
 11
-349.7999877929688
 21
382.4400024414062
 31
0.0
  0
LINE
  5
28B
330
1594
100
AcDbEntity
  8
01_VIEW_PV
  6
Continuous
 62
     7
100
AcDbLine
 10
-399.7999877929688
 20
151.5599975585937
 30
0.0
 11
-349.7999877929688
 21
151.5599975585937
 31
0.0
  0
LINE
  5
28C
330
1594
100
AcDbEntity
  8
01_VIEW_PV
  6
Continuous
 62
     7
100
AcDbLine
 10
-349.7999877929688
 20
375.4400024414063
 30
0.0
 11
-310.0
 21
375.4400024414063
 31
0.0
  0
LINE
  5
28D
330
1594
100
AcDbEntity
  8
01_VIEW_PV
  6
Continuous
 62
     7
100
AcDbLine
 10
-349.7999877929688
 20
158.5599975585937
 30
0.0
 11
-115.0
 21
158.5599975585937
 31
0.0
  0
LINE
  5
28E
330
1594
100
AcDbEntity
  8
01_VIEW_PV
  6
Continuous
 62
     7
100
AcDbLine
 10
-160.0
 20
375.4400024414063
 30
0.0
 11
-160.0
 21
158.5599975585937
 31
0.0
  0
LINE
  5
28F
330
1594
100
AcDbEntity
  8
01_VIEW_PV
  6
Continuous
 62
     7
100
AcDbLine
 10
-190.0
 20
427.0
 30
0.0
 11
-190.0
 21
367.0
 31
0.0
  0
LINE
  5
290
330
1594
100
AcDbEntity
  8
01_VIEW_PV
  6
Continuous
 62
     7
100
AcDbLine
 10
-310.0
 20
427.0
 30
0.0
 11
-310.0
 21
367.0
 31
0.0
  0
LINE
  5
291
330
1594
100
AcDbEntity
  8
01_VIEW_PV
  6
Continuous
 62
     7
100
AcDbLine
 10
-310.0
 20
367.0
 30
0.0
 11
-190.0
 21
367.0
 31
0.0
  0
LINE
  5
292
330
1594
100
AcDbEntity
  8
01_VIEW_PV
  6
Continuous
 62
     7
100
AcDbLine
 10
-310.0
 20
427.0
 30
0.0
 11
-190.0
 21
427.0
 31
0.0
  0
LINE
  5
293
330
1594
100
AcDbEntity
  8
01_VIEW_PV
  6
Continuous
 62
     7
100
AcDbLine
 10
-310.0
 20
425.0
 30
0.0
 11
-190.0
 21
425.0
 31
0.0
  0
LINE
  5
294
330
1594
100
AcDbEntity
  8
01_VIEW_PV
  6
Continuous
 62
     7
100
AcDbLine
 10
-190.0
 20
375.4400024414063
 30
0.0
 11
-115.0
 21
375.4400024414063
 31
0.0
  0
LINE
  5
295
330
1594
100
AcDbEntity
  8
SN7U-6
100
AcDbLine
 10
-457.8999938964844
 20
362.4400024414062
 30
0.0
 11
-457.8999938964844
 21
171.5599975585937
 31
0.0
  0
LINE
  5
297
330
1594
100
AcDbEntity
  8
CENTER
100
AcDbLine
 10
-80.0
 20
488.8485107421875
 30
0.0
 11
-80.0
 21
412.1106872558593
 31
0.0
  0
LINE
  5
298
330
1594
100
AcDbEntity
  8
CENTER
100
AcDbLine
 10
-116.3405151367187
 20
449.8359985351562
 30
0.0
 11
-44.93206787109374
 21
449.8359985351562
 31
0.0
  0
LINE
  5
299
330
1594
100
AcDbEntity
  8
01_VIEW_PV
  6
Continuous
 62
     7
100
AcDbLine
 10
-65.0
 20
429.8359985351562
 30
0.0
 11
-65.0
 21
422.8359985351562
 31
0.0
  0
LINE
  5
29A
330
1594
100
AcDbEntity
  8
01_VIEW_PV
  6
Continuous
 62
     7
100
AcDbLine
 10
-95.0
 20
429.8359985351562
 30
0.0
 11
-95.0
 21
422.8359985351562
 31
0.0
  0
LINE
  5
29B
330
1594
100
AcDbEntity
  8
01_VIEW_PV
  6
Continuous
 62
     7
100
AcDbLine
 10
-91.0
 20
433.8359985351562
 30
0.0
 11
-69.0
 21
433.8359985351562
 31
0.0
  0
LINE
  5
29C
330
1594
100
AcDbEntity
  8
01_VIEW_PV
  6
Continuous
 62
     7
100
AcDbLine
 10
-98.0
 20
422.8359985351562
 30
0.0
 11
-62.0
 21
422.8359985351562
 31
0.0
  0
LINE
  5
29D
330
1594
100
AcDbEntity
  8
01_VIEW_PV
  6
Continuous
 62
     7
100
AcDbLine
 10
-62.0
 20
422.8359985351562
 30
0.0
 11
-62.0
 21
395.0
 31
0.0
  0
LINE
  5
29E
330
1594
100
AcDbEntity
  8
01_VIEW_PV
  6
Continuous
 62
     7
100
AcDbLine
 10
-98.0
 20
422.8359985351562
 30
0.0
 11
-98.0
 21
395.0
 31
0.0
  0
LINE
  5
29F
330
1594
100
AcDbEntity
  8
CENTER
100
AcDbLine
 10
529.0589599609375
 20
504.9335632324218
 30
0.0
 11
529.0589599609375
 21
-145.3399658203125
 31
0.0
  0
LINE
  5
2A0
330
1594
100
AcDbEntity
  8
CENTER
100
AcDbLine
 10
387.0173034667969
 20
0.0
 30
0.0
 11
725.3450317382812
 21
0.0
 31
0.0
  0
LINE
  5
2A1
330
1594
100
AcDbEntity
  8
CENTER
100
AcDbLine
 10
392.012451171875
 20
267.0
 30
0.0
 11
662.760498046875
 21
267.0
 31
0.0
  0
LINE
  5
2A2
330
1594
100
AcDbEntity
  8
01_VIEW_PV
  6
Continuous
 62
     7
100
AcDbLine
 10
654.0589599609375
 20
320.0000305175781
 30
0.0
 11
654.0589599609375
 21
-49.99985122680664
 31
0.0
  0
LINE
  5
2A3
330
1594
100
AcDbEntity
  8
01_VIEW_PV
  6
Continuous
 62
     7
100
AcDbLine
 10
404.0589599609375
 20
320.0
 30
0.0
 11
404.0589599609375
 21
-50.0
 31
0.0
  0
LINE
  5
2A4
330
1594
100
AcDbEntity
  8
01_VIEW_PV
  6
Continuous
 62
     7
100
AcDbLine
 10
391.5589599609375
 20
-130.0
 30
0.0
 11
524.0589599609375
 21
-130.0
 31
0.0
  0
LINE
  5
2A5
330
1594
100
AcDbEntity
  8
01_VIEW_PV
  6
Continuous
 62
     7
100
AcDbLine
 10
447.3602294921875
 20
395.0
 30
0.0
 11
610.7576904296875
 21
395.0
 31
0.0
  0
LINE
  5
2A7
330
1594
100
AcDbEntity
  8
CENTER
100
AcDbLine
 10
507.0744934082031
 20
449.8359985351562
 30
0.0
 11
549.5797729492188
 21
449.8359985351562
 31
0.0
  0
LINE
  5
2A8
330
1594
100
AcDbEntity
  8
01_VIEW_PV
  6
Continuous
 62
     7
100
AcDbLine
 10
450.2470092773437
 20
390.0
 30
0.0
 11
607.8709716796875
 21
390.0
 31
0.0
  0
LINE
  5
2A9
330
1594
100
AcDbEntity
  8
01_VIEW_PV
  6
Continuous
 62
     7
100
AcDbLine
 10
404.0589599609375
 20
320.0
 30
0.0
 11
447.3602600097656
 21
395.0
 31
0.0
  0
LINE
  5
2AA
330
1594
100
AcDbEntity
  8
01_VIEW_PV
  6
Continuous
 62
     7
100
AcDbLine
 10
409.0589904785156
 20
318.6602783203125
 30
0.0
 11
450.2470397949219
 21
390.0000305175781
 31
0.0
  0
LINE
  5
2AB
330
1594
100
AcDbEntity
  8
01_VIEW_PV
  6
Continuous
 62
     7
100
AcDbLine
 10
409.0589599609375
 20
318.6602478027344
 30
0.0
 11
409.0589599609375
 21
-48.66030502319336
 31
0.0
  0
LINE
  5
2AC
330
1594
100
AcDbEntity
  8
01_VIEW_PV
  6
Continuous
 62
     7
100
AcDbLine
 10
654.0588989257813
 20
320.0
 30
0.0
 11
610.7576293945312
 21
394.9999694824219
 31
0.0
  0
LINE
  5
2AD
330
1594
100
AcDbEntity
  8
01_VIEW_PV
  6
Continuous
 62
     7
100
AcDbLine
 10
649.0589599609375
 20
318.6602783203125
 30
0.0
 11
607.8709106445312
 21
390.0000305175781
 31
0.0
  0
LINE
  5
2AE
330
1594
100
AcDbEntity
  8
01_VIEW_PV
  6
Continuous
 62
     7
100
AcDbLine
 10
649.0589599609375
 20
318.6602478027344
 30
0.0
 11
649.0589599609375
 21
-48.66033554077148
 31
0.0
  0
LINE
  5
2AF
330
1594
100
AcDbEntity
  8
01_VIEW_PV
  6
Continuous
 62
     7
100
AcDbLine
 10
447.3602905273437
 20
-125.0
 30
0.0
 11
510.4456176757812
 21
-125.0
 31
0.0
  0
LINE
  5
2B0
330
1594
100
AcDbEntity
  8
01_VIEW_PV
  6
Continuous
 62
     7
100
AcDbLine
 10
404.0589599609375
 20
-50.00002288818359
 30
0.0
 11
447.3602600097656
 21
-125.0
 31
0.0
  0
LINE
  5
2B1
330
1594
100
AcDbEntity
  8
01_VIEW_PV
  6
Continuous
 62
     7
100
AcDbLine
 10
409.0589599609375
 20
-48.66028594970703
 30
0.0
 11
450.2470092773437
 21
-120.0000305175781
 31
0.0
  0
LINE
  5
2B2
330
1594
100
AcDbEntity
  8
01_VIEW_PV
  6
Continuous
 62
     7
100
AcDbLine
 10
450.2470092773437
 20
-120.0
 30
0.0
 11
512.02392578125
 21
-120.0
 31
0.0
  0
LINE
  5
2B3
330
1594
100
AcDbEntity
  8
01_VIEW_PV
  6
Continuous
 62
     7
100
AcDbLine
 10
649.0589599609375
 20
-48.66031265258789
 30
0.0
 11
607.8709106445312
 21
-120.0000686645507
 31
0.0
  0
LINE
  5
2B4
330
1594
100
AcDbEntity
  8
01_VIEW_PV
  6
Continuous
 62
     7
100
AcDbLine
 10
654.058837890625
 20
-49.99997711181641
 30
0.0
 11
610.7575073242188
 21
-124.9999542236328
 31
0.0
  0
LINE
  5
2B5
330
1594
100
AcDbEntity
  8
01_VIEW_PV
  6
Continuous
 62
     7
100
AcDbLine
 10
666.5589599609375
 20
-105.0
 30
0.0
 11
666.5589599609375
 21
-130.0
 31
0.0
  0
LINE
  5
2B6
330
1594
100
AcDbEntity
  8
01_VIEW_PV
  6
Continuous
 62
     7
100
AcDbLine
 10
391.5589599609375
 20
-105.0
 30
0.0
 11
391.5589599609375
 21
-130.0
 31
0.0
  0
LINE
  5
2B7
330
1594
100
AcDbEntity
  8
01_VIEW_PV
  6
Continuous
 62
     7
100
AcDbLine
 10
391.5589599609375
 20
-105.0
 30
0.0
 11
435.8132629394531
 21
-105.0
 31
0.0
  0
LINE
  5
2B8
330
1594
100
AcDbEntity
  8
01_VIEW_PV
  6
Continuous
 62
     7
100
AcDbLine
 10
622.3046264648437
 20
-105.0
 30
0.0
 11
666.5589599609375
 21
-105.0
 31
0.0
  0
LINE
  5
2B9
330
1594
100
AcDbEntity
  8
01_VIEW_PV
  6
Continuous
 62
     7
100
AcDbLine
 10
716.5589599609375
 20
100.0
 30
0.0
 11
716.5589599609375
 21
-108.0
 31
0.0
  0
LINE
  5
2BA
330
1594
100
AcDbEntity
  8
01_VIEW_PV
  6
Continuous
 62
     7
100
AcDbLine
 10
654.0589599609375
 20
130.0
 30
0.0
 11
686.5589599609375
 21
130.0
 31
0.0
  0
LINE
  5
2BB
330
1594
100
AcDbEntity
  8
01_VIEW_PV
  6
Continuous
 62
     7
100
AcDbLine
 10
716.5588989257813
 20
100.0
 30
0.0
 11
686.5589599609375
 21
129.9999847412109
 31
0.0
  0
LINE
  5
2BC
330
1594
100
AcDbEntity
  8
01_VIEW_PV
  6
Continuous
 62
     7
100
AcDbLine
 10
654.0589599609375
 20
127.0
 30
0.0
 11
685.3162841796875
 21
127.0
 31
0.0
  0
LINE
  5
2BD
330
1594
100
AcDbEntity
  8
01_VIEW_PV
  6
Continuous
 62
     7
100
AcDbLine
 10
713.5589599609375
 20
98.75733947753907
 30
0.0
 11
685.3162841796875
 21
127.0000076293945
 31
0.0
  0
LINE
  5
2BE
330
1594
100
AcDbEntity
  8
01_VIEW_PV
  6
Continuous
 62
     7
100
AcDbLine
 10
713.5589599609375
 20
98.75734710693359
 30
0.0
 11
713.5589599609375
 21
-108.0
 31
0.0
  0
LINE
  5
2BF
330
1594
100
AcDbEntity
  8
01_VIEW_PV
  6
Continuous
 62
     7
100
AcDbLine
 10
666.5589599609375
 20
-108.0
 30
0.0
 11
716.5589599609375
 21
-108.0
 31
0.0
  0
LINE
  5
2C1
330
1594
100
AcDbEntity
  8
01_VIEW_PV
  6
Continuous
 62
     7
100
AcDbLine
 10
511.0589599609375
 20
433.8359985351562
 30
0.0
 11
547.0589599609374
 21
433.8359985351562
 31
0.0
  0
LINE
  5
2C2
330
1594
100
AcDbEntity
  8
01_VIEW_PV
  6
Continuous
 62
     7
100
AcDbLine
 10
547.0589599609374
 20
433.8359985351562
 30
0.0
 11
547.0589599609374
 21
420.0
 31
0.0
  0
LINE
  5
2C3
330
1594
100
AcDbEntity
  8
01_VIEW_PV
  6
Continuous
 62
     7
100
AcDbLine
 10
511.0589599609375
 20
433.8359985351562
 30
0.0
 11
511.0589599609375
 21
420.0
 31
0.0
  0
LINE
  5
2C4
330
1594
100
AcDbEntity
  8
01_VIEW_PV
  6
Continuous
 62
     7
100
AcDbLine
 10
483.2229614257812
 20
395.0
 30
0.0
 11
508.2229614257812
 21
420.0
 31
0.0
  0
LINE
  5
2C5
330
1594
100
AcDbEntity
  8
01_VIEW_PV
  6
Continuous
 62
     7
100
AcDbLine
 10
549.8949279785156
 20
420.0
 30
0.0
 11
574.8949584960937
 21
394.9999694824219
 31
0.0
  0
LINE
  5
2C6
330
1594
100
AcDbEntity
  8
01_VIEW_PV
  6
Continuous
 62
     7
100
AcDbLine
 10
535.0589599609374
 20
473.8359985351562
 30
0.0
 11
535.0589599609374
 21
433.8359985351562
 31
0.0
  0
LINE
  5
2C7
330
1594
100
AcDbEntity
  8
01_VIEW_PV
  6
Continuous
 62
     7
100
AcDbLine
 10
523.0589599609374
 20
473.8359985351562
 30
0.0
 11
523.0589599609374
 21
433.8359985351562
 31
0.0
  0
LINE
  5
2C8
330
1594
100
AcDbEntity
  8
01_VIEW_PV
  6
Continuous
 62
     7
100
AcDbLine
 10
550.4010620117187
 20
-120.0
 30
0.0
 11
607.8709716796875
 21
-120.0
 31
0.0
  0
LINE
  5
2C9
330
1594
100
AcDbEntity
  8
01_VIEW_PV
  6
Continuous
 62
     7
100
AcDbLine
 10
549.9328002929687
 20
-125.0
 30
0.0
 11
610.757568359375
 21
-125.0
 31
0.0
  0
LINE
  5
2CA
330
1594
100
AcDbEntity
  8
01_VIEW_PV
  6
Continuous
 62
     7
100
AcDbLine
 10
524.0589599609375
 20
-124.0
 30
0.0
 11
534.0589599609375
 21
-124.0
 31
0.0
  0
LINE
  5
2CB
330
1594
100
AcDbEntity
  8
01_VIEW_PV
  6
Continuous
 62
     7
100
AcDbLine
 10
534.0589599609375
 20
-124.0
 30
0.0
 11
534.0589599609375
 21
-130.0
 31
0.0
  0
LINE
  5
2CC
330
1594
100
AcDbEntity
  8
01_VIEW_PV
  6
Continuous
 62
     7
100
AcDbLine
 10
524.0589599609375
 20
-124.0
 30
0.0
 11
524.0589599609375
 21
-130.0
 31
0.0
  0
LINE
  5
2CD
330
1594
100
AcDbEntity
  8
01_VIEW_PV
  6
Continuous
 62
     7
100
AcDbLine
 10
534.0589599609375
 20
-130.0
 30
0.0
 11
666.5589599609375
 21
-130.0
 31
0.0
  0
LINE
  5
2CE
330
1594
100
AcDbEntity
  8
CENTER
100
AcDbLine
 10
409.0589599609375
 20
-93.14874267578124
 30
0.0
 11
409.0589599609375
 21
-145.3399658203125
 31
0.0
  0
LINE
  5
2CF
330
1594
100
AcDbEntity
  8
DASH
100
AcDbLine
 10
418.0589599609374
 20
-105.0
 30
0.0
 11
418.0589599609374
 21
-130.0
 31
0.0
  0
LINE
  5
2D0
330
1594
100
AcDbEntity
  8
DASH
100
AcDbLine
 10
400.0589599609375
 20
-105.0
 30
0.0
 11
400.0589599609375
 21
-130.0
 31
0.0
  0
LINE
  5
2D1
330
1594
100
AcDbEntity
  8
DASH
100
AcDbLine
 10
658.0589599609375
 20
-105.0
 30
0.0
 11
658.0589599609375
 21
-130.0
 31
0.0
  0
LINE
  5
2D2
330
1594
100
AcDbEntity
  8
CENTER
100
AcDbLine
 10
649.0589599609375
 20
-93.14874267578124
 30
0.0
 11
649.0589599609375
 21
-145.3399658203125
 31
0.0
  0
LINE
  5
2D3
330
1594
100
AcDbEntity
  8
DASH
100
AcDbLine
 10
640.0589599609375
 20
-105.0
 30
0.0
 11
640.0589599609375
 21
-130.0
 31
0.0
  0
LINE
  5
2D4
330
1594
100
AcDbEntity
  8
CENTER
100
AcDbLine
 10
-996.6812133789062
 20
800.0
 30
0.0
 11
17.9166374206543
 21
800.0
 31
0.0
  0
LINE
  5
2D5
330
1594
100
AcDbEntity
  8
01_VIEW_PV
  6
Continuous
 62
     7
100
AcDbLine
 10
0.0
 20
906.0000610351563
 30
0.0
 11
0.0
 21
694.0
 31
0.0
  0
LINE
  5
2D6
330
1594
100
AcDbEntity
  8
01_VIEW_PV
  6
Continuous
 62
     7
100
AcDbLine
 10
-983.0
 20
817.5
 30
0.0
 11
-983.0
 21
782.5
 31
0.0
  0
LINE
  5
2D7
330
1594
100
AcDbEntity
  8
01_VIEW_PV
  6
Continuous
 62
     7
100
AcDbLine
 10
-845.0
 20
892.8572387695313
 30
0.0
 11
-845.0
 21
707.1428833007812
 31
0.0
  0
LINE
  5
2D8
330
1594
100
AcDbEntity
  8
01_VIEW_PV
  6
Continuous
 62
     7
100
AcDbLine
 10
-893.0
 20
874.0
 30
0.0
 11
-893.0
 21
726.0
 31
0.0
  0
LINE
  5
2D9
330
1594
100
AcDbEntity
  8
01_VIEW_PV
  6
Continuous
 62
     7
100
AcDbLine
 10
-958.0
 20
845.5
 30
0.0
 11
-958.0
 21
754.4999999999999
 31
0.0
  0
LINE
  5
2DA
330
1594
100
AcDbEntity
  8
01_VIEW_PV
  6
Continuous
 62
     7
100
AcDbLine
 10
-892.0
 20
875.0
 30
0.0
 11
-855.0
 21
875.0
 31
0.0
  0
LINE
  5
2DB
330
1594
100
AcDbEntity
  8
01_VIEW_PV
  6
Continuous
 62
     7
100
AcDbLine
 10
-892.0
 20
875.0
 30
0.0
 11
-892.0
 21
725.0
 31
0.0
  0
LINE
  5
2DC
330
1594
100
AcDbEntity
  8
01_VIEW_PV
  6
Continuous
 62
     7
100
AcDbLine
 10
-892.9998779296875
 20
874.0
 30
0.0
 11
-891.9998779296875
 21
875.0
 31
0.0
  0
LINE
  5
2DD
330
1594
100
AcDbEntity
  8
01_VIEW_PV
  6
Continuous
 62
     7
100
AcDbLine
 10
-892.0
 20
725.0
 30
0.0
 11
-855.0
 21
725.0
 31
0.0
  0
LINE
  5
2DE
330
1594
100
AcDbEntity
  8
01_VIEW_PV
  6
Continuous
 62
     7
100
AcDbLine
 10
-892.9998168945312
 20
725.9999389648437
 30
0.0
 11
-891.9996948242188
 21
724.9999389648437
 31
0.0
  0
LINE
  5
2DF
330
1594
100
AcDbEntity
  8
01_VIEW_PV
  6
Continuous
 62
     7
100
AcDbLine
 10
-956.0
 20
847.4999999999999
 30
0.0
 11
-893.0
 21
847.4999999999999
 31
0.0
  0
LINE
  5
2E0
330
1594
100
AcDbEntity
  8
01_VIEW_PV
  6
Continuous
 62
     7
100
AcDbLine
 10
-955.9999389648437
 20
752.5
 30
0.0
 11
-893.0
 21
752.5
 31
0.0
  0
LINE
  5
2E1
330
1594
100
AcDbEntity
  8
01_VIEW_PV
  6
Continuous
 62
     7
100
AcDbLine
 10
-956.0
 20
847.4999999999999
 30
0.0
 11
-956.0
 21
752.5
 31
0.0
  0
LINE
  5
2E2
330
1594
100
AcDbEntity
  8
01_VIEW_PV
  6
Continuous
 62
     7
100
AcDbLine
 10
-957.9998779296875
 20
845.4999389648437
 30
0.0
 11
-955.9998779296874
 21
847.4999999999999
 31
0.0
  0
LINE
  5
2E3
330
1594
100
AcDbEntity
  8
01_VIEW_PV
  6
Continuous
 62
     7
100
AcDbLine
 10
-957.9997558593749
 20
754.4999389648437
 30
0.0
 11
-955.9996337890625
 21
752.5
 31
0.0
  0
LINE
  5
2E4
330
1594
100
AcDbEntity
  8
01_VIEW_PV
  6
Continuous
 62
     7
100
AcDbLine
 10
-973.0
 20
829.0
 30
0.0
 11
-963.0
 21
829.0
 31
0.0
  0
LINE
  5
2E5
330
1594
100
AcDbEntity
  8
01_VIEW_PV
  6
Continuous
 62
     7
100
AcDbLine
 10
-973.0
 20
771.0
 30
0.0
 11
-963.0
 21
771.0
 31
0.0
  0
LINE
  5
2E6
330
1594
100
AcDbEntity
  8
01_VIEW_PV
  6
Continuous
 62
     7
100
AcDbLine
 10
-983.0
 20
817.5
 30
0.0
 11
-973.0
 21
817.5
 31
0.0
  0
LINE
  5
2E7
330
1594
100
AcDbEntity
  8
01_VIEW_PV
  6
Continuous
 62
     7
100
AcDbLine
 10
-983.0
 20
782.5
 30
0.0
 11
-973.0
 21
782.5
 31
0.0
  0
LINE
  5
2E8
330
1594
100
AcDbEntity
  8
01_VIEW_PV
  6
Continuous
 62
     7
100
AcDbLine
 10
-973.0
 20
829.0
 30
0.0
 11
-973.0
 21
771.0
 31
0.0
  0
LINE
  5
2E9
330
1594
100
AcDbEntity
  8
01_VIEW_PV
  6
Continuous
 62
     7
100
AcDbLine
 10
-963.0
 20
829.0
 30
0.0
 11
-963.0
 21
771.0
 31
0.0
  0
LINE
  5
2EA
330
1594
100
AcDbEntity
  8
01_VIEW_PV
  6
Continuous
 62
     7
100
AcDbLine
 10
-963.0
 20
815.0
 30
0.0
 11
-960.0
 21
815.0
 31
0.0
  0
LINE
  5
2EB
330
1594
100
AcDbEntity
  8
01_VIEW_PV
  6
Continuous
 62
     7
100
AcDbLine
 10
-960.0
 20
825.0
 30
0.0
 11
-958.0
 21
825.0
 31
0.0
  0
LINE
  5
2EC
330
1594
100
AcDbEntity
  8
01_VIEW_PV
  6
Continuous
 62
     7
100
AcDbLine
 10
-960.0
 20
825.0
 30
0.0
 11
-960.0
 21
775.0
 31
0.0
  0
LINE
  5
2ED
330
1594
100
AcDbEntity
  8
01_VIEW_PV
  6
Continuous
 62
     7
100
AcDbLine
 10
-963.0
 20
785.0
 30
0.0
 11
-960.0
 21
785.0
 31
0.0
  0
LINE
  5
2EE
330
1594
100
AcDbEntity
  8
01_VIEW_PV
  6
Continuous
 62
     7
100
AcDbLine
 10
-960.0
 20
775.0
 30
0.0
 11
-958.0
 21
775.0
 31
0.0
  0
LINE
  5
2EF
330
1594
100
AcDbEntity
  8
01_VIEW_PV
  6
Continuous
 62
     7
100
AcDbLine
 10
-855.0
 20
890.0000610351563
 30
0.0
 11
-855.0
 21
710.0
 31
0.0
  0
LINE
  5
2F0
330
1594
100
AcDbEntity
  8
CENTER
100
AcDbLine
 10
-795.0
 20
699.6887817382813
 30
0.0
 11
-795.0
 21
664.255859375
 31
0.0
  0
LINE
  5
2F1
330
1594
100
AcDbEntity
  8
CENTER
100
AcDbLine
 10
-535.0
 20
699.6887817382813
 30
0.0
 11
-535.0
 21
664.255859375
 31
0.0
  0
LINE
  5
2F2
330
1594
100
AcDbEntity
  8
01_VIEW_PV
  6
Continuous
 62
     7
100
AcDbLine
 10
-677.0
 20
715.0
 30
0.0
 11
-677.0
 21
685.0
 31
0.0
  0
LINE
  5
2F3
330
1594
100
AcDbEntity
  8
01_VIEW_PV
  6
Continuous
 62
     7
100
AcDbLine
 10
-553.0
 20
715.0
 30
0.0
 11
-553.0
 21
685.0
 31
0.0
  0
LINE
  5
2F4
330
1594
100
AcDbEntity
  8
01_VIEW_PV
  6
Continuous
 62
     7
100
AcDbLine
 10
-490.0
 20
885.0
 30
0.0
 11
-490.0
 21
690.0
 31
0.0
  0
LINE
  5
2F5
330
1594
100
AcDbEntity
  8
01_VIEW_PV
  6
Continuous
 62
     7
100
AcDbLine
 10
-465.0
 20
744.7927856445312
 30
0.0
 11
-465.0
 21
690.0
 31
0.0
  0
LINE
  5
2F6
330
1594
100
AcDbEntity
  8
01_VIEW_PV
  6
Continuous
 62
     7
100
AcDbLine
 10
-115.0
 20
925.0
 30
0.0
 11
-115.0
 21
675.0
 31
0.0
  0
LINE
  5
2F7
330
1594
100
AcDbEntity
  8
01_VIEW_PV
  6
Continuous
 62
     7
100
AcDbLine
 10
-19.0
 20
925.0
 30
0.0
 11
-19.0
 21
675.0
 31
0.0
  0
LINE
  5
2F8
330
1594
100
AcDbEntity
  8
01_VIEW_PV
  6
Continuous
 62
     7
100
AcDbLine
 10
-46.0
 20
925.0
 30
0.0
 11
-46.0
 21
675.0
 31
0.0
  0
LINE
  5
2F9
330
1594
100
AcDbEntity
  8
01_VIEW_PV
  6
Continuous
 62
     7
100
AcDbLine
 10
-56.0
 20
925.0
 30
0.0
 11
-56.0
 21
806.0
 31
0.0
  0
LINE
  5
2FA
330
1594
100
AcDbEntity
  8
01_VIEW_PV
  6
Continuous
 62
     7
100
AcDbLine
 10
-91.0
 20
925.0
 30
0.0
 11
-91.0
 21
846.0
 31
0.0
  0
LINE
  5
2FB
330
1594
100
AcDbEntity
  8
01_VIEW_PV
  6
Continuous
 62
     7
100
AcDbLine
 10
-96.0
 20
925.0
 30
0.0
 11
-96.0
 21
846.0
 31
0.0
  0
LINE
  5
2FC
330
1594
100
AcDbEntity
  8
01_VIEW_PV
  6
Continuous
 62
     7
100
AcDbLine
 10
-419.7999877929687
 20
895.43994140625
 30
0.0
 11
-419.7999877929687
 21
704.5599975585937
 31
0.0
  0
LINE
  5
2FD
330
1594
100
AcDbEntity
  8
01_VIEW_PV
  6
Continuous
 62
     7
100
AcDbLine
 10
-349.7999877929688
 20
915.4399414062499
 30
0.0
 11
-349.7999877929688
 21
684.5599975585937
 31
0.0
  0
LINE
  5
2FE
330
1594
100
AcDbEntity
  8
01_VIEW_PV
  6
Continuous
 62
     7
100
AcDbLine
 10
-399.7999877929688
 20
915.4399414062499
 30
0.0
 11
-349.7999877929688
 21
915.4399414062499
 31
0.0
  0
LINE
  5
2FF
330
1594
100
AcDbEntity
  8
01_VIEW_PV
  6
Continuous
 62
     7
100
AcDbLine
 10
-399.7999877929688
 20
684.5599975585937
 30
0.0
 11
-349.7999877929688
 21
684.5599975585937
 31
0.0
  0
LINE
  5
300
330
1594
100
AcDbEntity
  8
01_VIEW_PV
  6
Continuous
 62
     7
100
AcDbLine
 10
-349.7999877929688
 20
908.4399414062501
 30
0.0
 11
-115.0
 21
908.4399414062501
 31
0.0
  0
LINE
  5
301
330
1594
100
AcDbEntity
  8
01_VIEW_PV
  6
Continuous
 62
     7
100
AcDbLine
 10
-349.7999877929688
 20
691.5599975585937
 30
0.0
 11
-115.0
 21
691.5599975585937
 31
0.0
  0
LINE
  5
302
330
1594
100
AcDbEntity
  8
01_VIEW_PV
  6
Continuous
 62
     7
100
AcDbLine
 10
-160.0
 20
908.4399414062501
 30
0.0
 11
-160.0
 21
691.5599975585937
 31
0.0
  0
LINE
  5
303
330
1594
100
AcDbEntity
  8
01_VIEW_PV
  6
Continuous
 62
     7
100
AcDbLine
 10
-190.0
 20
835.0
 30
0.0
 11
-190.0
 21
765.0
 31
0.0
  0
LINE
  5
304
330
1594
100
AcDbEntity
  8
01_VIEW_PV
  6
Continuous
 62
     7
100
AcDbLine
 10
-310.0
 20
835.0
 30
0.0
 11
-310.0
 21
765.0
 31
0.0
  0
LINE
  5
305
330
1594
100
AcDbEntity
  8
SN7U-6
100
AcDbLine
 10
-457.8999938964844
 20
895.43994140625
 30
0.0
 11
-457.8999938964844
 21
704.5599975585937
 31
0.0
  0
LINE
  5
307
330
1594
100
AcDbEntity
  8
01_VIEW_PV
  6
Continuous
 62
     7
100
AcDbLine
 10
-115.0
 20
675.0
 30
0.0
 11
-19.00001525878906
 21
675.0
 31
0.0
  0
LINE
  5
308
330
1594
100
AcDbEntity
  8
01_VIEW_PV
  6
Continuous
 62
     7
100
AcDbLine
 10
-115.0
 20
925.0
 30
0.0
 11
-19.0
 21
925.0
 31
0.0
  0
LINE
  5
309
330
1594
100
AcDbEntity
  8
01_VIEW_PV
  6
Continuous
 62
     7
100
AcDbLine
 10
-18.99996948242187
 20
925.0
 30
0.0
 11
0.0000163528384292
 21
906.0000610351563
 31
0.0
  0
LINE
  5
30A
330
1594
100
AcDbEntity
  8
01_VIEW_PV
  6
Continuous
 62
     7
100
AcDbLine
 10
-0.0000172802010638
 20
694.0000610351562
 30
0.0
 11
-19.00002479553222
 21
675.0000610351563
 31
0.0
  0
LINE
  5
30B
330
1594
100
AcDbEntity
  8
01_VIEW_PV
  6
Continuous
 62
     7
100
AcDbLine
 10
-310.0
 20
835.0
 30
0.0
 11
-190.0
 21
835.0
 31
0.0
  0
LINE
  5
30C
330
1594
100
AcDbEntity
  8
01_VIEW_PV
  6
Continuous
 62
     7
100
AcDbLine
 10
-310.0
 20
765.0
 30
0.0
 11
-190.0
 21
765.0
 31
0.0
  0
LINE
  5
30D
330
1594
100
AcDbEntity
  8
01_VIEW_PV
  6
Continuous
 62
     7
100
AcDbLine
 10
-825.0
 20
662.5
 30
0.0
 11
-765.0
 21
662.5
 31
0.0
  0
LINE
  5
30E
330
1594
100
AcDbEntity
  8
01_VIEW_PV
  6
Continuous
 62
     7
100
AcDbLine
 10
-755.0
 20
685.0
 30
0.0
 11
-553.0
 21
685.0
 31
0.0
  0
LINE
  5
30F
330
1594
100
AcDbEntity
  8
01_VIEW_PV
  6
Continuous
 62
     7
100
AcDbLine
 10
-765.0
 20
662.5
 30
0.0
 11
-755.0
 21
685.0
 31
0.0
  0
LINE
  5
310
330
1594
100
AcDbEntity
  8
01_VIEW_PV
  6
Continuous
 62
     7
100
AcDbLine
 10
-575.0
 20
685.0
 30
0.0
 11
-565.0
 21
662.5000610351563
 31
0.0
  0
LINE
  5
311
330
1594
100
AcDbEntity
  8
01_VIEW_PV
  6
Continuous
 62
     7
100
AcDbLine
 10
-505.0
 20
662.5
 30
0.0
 11
-492.7777709960937
 21
690.0
 31
0.0
  0
LINE
  5
312
330
1594
100
AcDbEntity
  8
01_VIEW_PV
  6
Continuous
 62
     7
100
AcDbLine
 10
-785.0
 20
690.0
 30
0.0
 11
-677.0
 21
690.0
 31
0.0
  0
LINE
  5
313
330
1594
100
AcDbEntity
  8
01_VIEW_PV
  6
Continuous
 62
     7
100
AcDbLine
 10
-854.9998779296874
 20
709.9999389648437
 30
0.0
 11
-784.9998779296875
 21
689.9999389648437
 31
0.0
  0
LINE
  5
314
330
1594
100
AcDbEntity
  8
01_VIEW_PV
  6
Continuous
 62
     7
100
AcDbLine
 10
-825.0
 20
662.5
 30
0.0
 11
-855.0
 21
709.9999389648437
 31
0.0
  0
LINE
  5
315
330
1594
100
AcDbEntity
  8
01_VIEW_PV
  6
Continuous
 62
     7
100
AcDbLine
 10
-565.0
 20
662.5
 30
0.0
 11
-505.0
 21
662.5
 31
0.0
  0
LINE
  5
316
330
1594
100
AcDbEntity
  8
01_VIEW_PV
  6
Continuous
 62
     7
100
AcDbLine
 10
-677.0
 20
715.0
 30
0.0
 11
-553.0
 21
715.0
 31
0.0
  0
LINE
  5
317
330
1594
100
AcDbEntity
  8
01_VIEW_PV
  6
Continuous
 62
     7
100
AcDbLine
 10
-553.0
 20
690.0
 30
0.0
 11
-465.0
 21
690.0
 31
0.0
  0
LINE
  5
318
330
1594
100
AcDbEntity
  8
01_VIEW_PV
  6
Continuous
 62
     7
100
AcDbLine
 10
-465.0
 20
705.0
 30
0.0
 11
-419.7951354980468
 21
705.0
 31
0.0
  0
LINE
  5
319
330
1594
100
AcDbEntity
  8
01_VIEW_PV
  6
Continuous
 62
     7
100
AcDbLine
 10
-465.0
 20
717.0
 30
0.0
 11
-419.7999877929687
 21
717.0
 31
0.0
  0
LINE
  5
31A
330
1594
100
AcDbEntity
  8
CENTER
100
AcDbLine
 10
-812.9434814453125
 20
680.0
 30
0.0
 11
-777.7227172851562
 21
680.0
 31
0.0
  0
LINE
  5
31B
330
1594
100
AcDbEntity
  8
CENTER
100
AcDbLine
 10
-555.0028076171875
 20
680.0
 30
0.0
 11
-512.5305786132812
 21
680.0
 31
0.0
  0
LINE
  5
31C
330
1594
100
AcDbEntity
  8
01_VIEW_PV
  6
Continuous
 62
     7
100
AcDbLine
 10
-103.9999999999999
 20
806.0
 30
0.0
 11
-55.99999999999988
 21
806.0
 31
0.0
  0
LINE
  5
31D
330
1594
100
AcDbEntity
  8
01_VIEW_PV
  6
Continuous
 62
     7
100
AcDbLine
 10
-103.9999999999999
 20
794.0
 30
0.0
 11
-55.99999999999988
 21
794.0
 31
0.0
  0
LINE
  5
31E
330
1594
100
AcDbEntity
  8
CENTER
100
AcDbLine
 10
-80.0
 20
824.4311523437499
 30
0.0
 11
-80.0
 21
778.2120361328125
 31
0.0
  0
LINE
  5
321
330
1594
100
AcDbEntity
  8
01_VIEW_PV
  6
Continuous
 62
     7
100
AcDbLine
 10
-98.0
 20
846.0
 30
0.0
 11
-62.0
 21
846.0
 31
0.0
  0
LINE
  5
322
330
1594
100
AcDbEntity
  8
01_VIEW_PV
  6
Continuous
 62
     7
100
AcDbLine
 10
-98.0
 20
754.0
 30
0.0
 11
-62.0
 21
754.0
 31
0.0
  0
LINE
  5
323
330
1594
100
AcDbEntity
  8
01_VIEW_PV
  6
Continuous
 62
     7
100
AcDbLine
 10
-95.0
 20
818.0
 30
0.0
 11
-65.0
 21
818.0
 31
0.0
  0
LINE
  5
324
330
1594
100
AcDbEntity
  8
01_VIEW_PV
  6
Continuous
 62
     7
100
AcDbLine
 10
-95.0
 20
782.0
 30
0.0
 11
-65.0
 21
782.0
 31
0.0
  0
LINE
  5
325
330
1594
100
AcDbEntity
  8
01_VIEW_PV
  6
Continuous
 62
     7
100
AcDbLine
 10
-62.0
 20
846.0
 30
0.0
 11
-62.0
 21
806.0
 31
0.0
  0
LINE
  5
326
330
1594
100
AcDbEntity
  8
01_VIEW_PV
  6
Continuous
 62
     7
100
AcDbLine
 10
-98.0
 20
846.0
 30
0.0
 11
-98.0
 21
806.0
 31
0.0
  0
LINE
  5
327
330
1594
100
AcDbEntity
  8
01_VIEW_PV
  6
Continuous
 62
     7
100
AcDbLine
 10
-65.0
 20
818.0
 30
0.0
 11
-65.0
 21
806.0
 31
0.0
  0
LINE
  5
328
330
1594
100
AcDbEntity
  8
01_VIEW_PV
  6
Continuous
 62
     7
100
AcDbLine
 10
-95.0
 20
818.0
 30
0.0
 11
-95.0
 21
806.0
 31
0.0
  0
LINE
  5
329
330
1594
100
AcDbEntity
  8
01_VIEW_PV
  6
Continuous
 62
     7
100
AcDbLine
 10
-91.0
 20
754.0
 30
0.0
 11
-91.0
 21
675.0
 31
0.0
  0
LINE
  5
32A
330
1594
100
AcDbEntity
  8
01_VIEW_PV
  6
Continuous
 62
     7
100
AcDbLine
 10
-96.0
 20
754.0
 30
0.0
 11
-96.0
 21
675.0
 31
0.0
  0
LINE
  5
32B
330
1594
100
AcDbEntity
  8
01_VIEW_PV
  6
Continuous
 62
     7
100
AcDbLine
 10
-56.0
 20
794.0
 30
0.0
 11
-56.0
 21
675.0
 31
0.0
  0
LINE
  5
32C
330
1594
100
AcDbEntity
  8
01_VIEW_PV
  6
Continuous
 62
     7
100
AcDbLine
 10
-62.0
 20
794.0
 30
0.0
 11
-62.0
 21
754.0
 31
0.0
  0
LINE
  5
32D
330
1594
100
AcDbEntity
  8
01_VIEW_PV
  6
Continuous
 62
     7
100
AcDbLine
 10
-98.0
 20
794.0
 30
0.0
 11
-98.0
 21
754.0
 31
0.0
  0
LINE
  5
32E
330
1594
100
AcDbEntity
  8
01_VIEW_PV
  6
Continuous
 62
     7
100
AcDbLine
 10
-95.0
 20
794.0
 30
0.0
 11
-95.0
 21
782.0
 31
0.0
  0
LINE
  5
32F
330
1594
100
AcDbEntity
  8
01_VIEW_PV
  6
Continuous
 62
     7
100
AcDbLine
 10
-65.0
 20
794.0
 30
0.0
 11
-65.0
 21
782.0
 31
0.0
  0
LINE
  5
330
330
1594
100
AcDbEntity
  8
CENTER
100
AcDbLine
 10
-815.0
 20
824.4311523437499
 30
0.0
 11
-815.0
 21
778.2120361328125
 31
0.0
  0
LINE
  5
331
330
1594
100
AcDbEntity
  8
01_VIEW_PV
  6
Continuous
 62
     7
100
AcDbLine
 10
-839.0
 20
794.0
 30
0.0
 11
-790.9999999999999
 21
794.0
 31
0.0
  0
LINE
  5
332
330
1594
100
AcDbEntity
  8
01_VIEW_PV
  6
Continuous
 62
     7
100
AcDbLine
 10
-839.0
 20
806.0
 30
0.0
 11
-790.9999999999999
 21
806.0
 31
0.0
  0
LINE
  5
333
330
1594
100
AcDbEntity
  8
01_VIEW_PV
  6
Continuous
 62
     7
100
AcDbLine
 10
-845.0
 20
806.0
 30
0.0
 11
-845.0
 21
794.0
 31
0.0
  0
LINE
  5
335
330
1594
100
AcDbEntity
  8
01_VIEW_PV
  6
Continuous
 62
     7
100
AcDbLine
 10
-797.0
 20
818.0
 30
0.0
 11
-797.0
 21
806.0
 31
0.0
  0
LINE
  5
336
330
1594
100
AcDbEntity
  8
01_VIEW_PV
  6
Continuous
 62
     7
100
AcDbLine
 10
-833.0
 20
818.0
 30
0.0
 11
-833.0
 21
806.0
 31
0.0
  0
LINE
  5
337
330
1594
100
AcDbEntity
  8
01_VIEW_PV
  6
Continuous
 62
     7
100
AcDbLine
 10
-833.0
 20
818.0
 30
0.0
 11
-797.0
 21
818.0
 31
0.0
  0
LINE
  5
338
330
1594
100
AcDbEntity
  8
01_VIEW_PV
  6
Continuous
 62
     7
100
AcDbLine
 10
-833.0
 20
782.0
 30
0.0
 11
-797.0
 21
782.0
 31
0.0
  0
LINE
  5
339
330
1594
100
AcDbEntity
  8
01_VIEW_PV
  6
Continuous
 62
     7
100
AcDbLine
 10
-833.0
 20
794.0
 30
0.0
 11
-833.0
 21
782.0
 31
0.0
  0
LINE
  5
33A
330
1594
100
AcDbEntity
  8
01_VIEW_PV
  6
Continuous
 62
     7
100
AcDbLine
 10
-797.0
 20
794.0
 30
0.0
 11
-797.0
 21
782.0
 31
0.0
  0
LINE
  5
33B
330
1594
100
AcDbEntity
  8
01_VIEW_PV
  6
Continuous
 62
     7
100
AcDbLine
 10
-854.9998779296874
 20
890.0001220703124
 30
0.0
 11
-785.0003051757812
 21
910.0
 31
0.0
  0
LINE
  5
33C
330
1594
100
AcDbEntity
  8
01_VIEW_PV
  6
Continuous
 62
     7
100
AcDbLine
 10
-785.0003051757812
 20
910.0
 30
0.0
 11
-677.0
 21
910.0
 31
0.0
  0
LINE
  5
33D
330
1594
100
AcDbEntity
  8
01_VIEW_PV
  6
Continuous
 62
     7
100
AcDbLine
 10
-553.0
 20
910.0
 30
0.0
 11
-545.0
 21
910.0
 31
0.0
  0
LINE
  5
33E
330
1594
100
AcDbEntity
  8
01_VIEW_PV
  6
Continuous
 62
     7
100
AcDbLine
 10
-677.0
 20
915.0
 30
0.0
 11
-553.0
 21
915.0
 31
0.0
  0
LINE
  5
33F
330
1594
100
AcDbEntity
  8
01_VIEW_PV
  6
Continuous
 62
     7
100
AcDbLine
 10
-677.0
 20
885.0
 30
0.0
 11
-553.0
 21
885.0
 31
0.0
  0
LINE
  5
340
330
1594
100
AcDbEntity
  8
01_VIEW_PV
  6
Continuous
 62
     7
100
AcDbLine
 10
-677.0
 20
885.0
 30
0.0
 11
-677.0
 21
915.0
 31
0.0
  0
LINE
  5
341
330
1594
100
AcDbEntity
  8
01_VIEW_PV
  6
Continuous
 62
     7
100
AcDbLine
 10
-553.0
 20
885.0
 30
0.0
 11
-553.0
 21
915.0
 31
0.0
  0
LINE
  5
342
330
1594
100
AcDbEntity
  8
01_VIEW_PV
  6
Continuous
 62
     7
100
AcDbLine
 10
-630.0
 20
990.6199951171874
 30
0.0
 11
-555.0
 21
990.6199951171874
 31
0.0
  0
LINE
  5
343
330
1594
100
AcDbEntity
  8
CENTER
100
AcDbLine
 10
-470.0
 20
861.6983032226562
 30
0.0
 11
-470.0
 21
808.6528930664062
 31
0.0
  0
LINE
  5
344
330
1594
100
AcDbEntity
  8
CENTER
100
AcDbLine
 10
-493.5826721191406
 20
835.0
 30
0.0
 11
-446.3767395019531
 21
835.0
 31
0.0
  0
LINE
  5
34B
330
1594
100
AcDbEntity
  8
CENTER
100
AcDbLine
 10
-470.0
 20
791.6983032226562
 30
0.0
 11
-470.0
 21
738.6528930664062
 31
0.0
  0
LINE
  5
34C
330
1594
100
AcDbEntity
  8
CENTER
100
AcDbLine
 10
-493.5826721191406
 20
765.0
 30
0.0
 11
-446.3767395019531
 21
765.0
 31
0.0
  0
LINE
  5
353
330
1594
100
AcDbEntity
  8
01_VIEW_PV
  6
Continuous
 62
     7
100
AcDbLine
 10
-464.9999694824218
 20
744.7927246093749
 30
0.0
 11
-451.9999694824218
 21
752.2983398437499
 31
0.0
  0
LINE
  5
354
330
1594
100
AcDbEntity
  8
01_VIEW_PV
  6
Continuous
 62
     7
100
AcDbLine
 10
-452.0
 20
885.0
 30
0.0
 11
-452.0
 21
752.2983398437499
 31
0.0
  0
LINE
  5
355
330
1594
100
AcDbEntity
  8
01_VIEW_PV
  6
Continuous
 62
     7
100
AcDbLine
 10
-449.7999877929687
 20
825.0
 30
0.0
 11
-419.7999877929687
 21
825.0
 31
0.0
  0
LINE
  5
356
330
1594
100
AcDbEntity
  8
01_VIEW_PV
  6
Continuous
 62
     7
100
AcDbLine
 10
-449.7999877929687
 20
885.0
 30
0.0
 11
-449.7999877929687
 21
825.0
 31
0.0
  0
LINE
  5
357
330
1594
100
AcDbEntity
  8
CENTER
100
AcDbLine
 10
-932.2035522460938
 20
948.0
 30
0.0
 11
-120.6229858398437
 21
948.0
 31
0.0
  0
LINE
  5
359
330
1594
100
AcDbEntity
  8
01_VIEW_PV
  6
Continuous
 62
     7
100
AcDbLine
 10
-545.0
 20
987.5
 30
0.0
 11
-545.0
 21
885.0
 31
0.0
  0
LINE
  5
35A
330
1594
100
AcDbEntity
  8
01_VIEW_PV
  6
Continuous
 62
     7
100
AcDbLine
 10
-130.0
 20
987.5
 30
0.0
 11
-130.0
 21
908.4399414062501
 31
0.0
  0
LINE
  5
35B
330
1594
100
AcDbEntity
  8
01_VIEW_PV
  6
Continuous
 62
     7
100
AcDbLine
 10
-545.0
 20
885.0
 30
0.0
 11
-449.7999877929687
 21
885.0
 31
0.0
  0
LINE
  5
35C
330
1594
100
AcDbEntity
  8
01_VIEW_PV
  6
Continuous
 62
     7
100
AcDbLine
 10
-555.0
 20
990.6199951171874
 30
0.0
 11
-555.0
 21
915.0
 31
0.0
  0
LINE
  5
35D
330
1594
100
AcDbEntity
  8
01_VIEW_PV
  6
Continuous
 62
     7
100
AcDbLine
 10
-630.0
 20
990.6199951171874
 30
0.0
 11
-630.0
 21
915.0
 31
0.0
  0
LINE
  5
35E
330
1594
100
AcDbEntity
  8
01_VIEW_PV
  6
Continuous
 62
     7
100
AcDbLine
 10
-685.0
 20
980.4999999999999
 30
0.0
 11
-685.0
 21
915.4999999999999
 31
0.0
  0
LINE
  5
35F
330
1594
100
AcDbEntity
  8
01_VIEW_PV
  6
Continuous
 62
     7
100
AcDbLine
 10
-820.0
 20
978.0
 30
0.0
 11
-820.0
 21
918.0
 31
0.0
  0
LINE
  5
360
330
1594
100
AcDbEntity
  8
01_VIEW_PV
  6
Continuous
 62
     7
100
AcDbLine
 10
-845.0
 20
978.0
 30
0.0
 11
-845.0
 21
918.0
 31
0.0
  0
LINE
  5
361
330
1594
100
AcDbEntity
  8
01_VIEW_PV
  6
Continuous
 62
     7
100
AcDbLine
 10
-860.0
 20
978.0
 30
0.0
 11
-860.0
 21
918.0
 31
0.0
  0
LINE
  5
362
330
1594
100
AcDbEntity
  8
01_VIEW_PV
  6
Continuous
 62
     7
100
AcDbLine
 10
-870.0
 20
978.0
 30
0.0
 11
-870.0
 21
918.0
 31
0.0
  0
LINE
  5
363
330
1594
100
AcDbEntity
  8
01_VIEW_PV
  6
Continuous
 62
     7
100
AcDbLine
 10
-885.0
 20
973.0
 30
0.0
 11
-885.0
 21
923.0
 31
0.0
  0
LINE
  5
364
330
1594
100
AcDbEntity
  8
DASH
100
AcDbLine
 10
-514.1460571289062
 20
975.5
 30
0.0
 11
-514.1460571289062
 21
920.5
 31
0.0
  0
LINE
  5
365
330
1594
100
AcDbEntity
  8
DASH
100
AcDbLine
 10
-509.1459960937499
 20
970.5
 30
0.0
 11
-509.1459960937499
 21
925.5
 31
0.0
  0
LINE
  5
366
330
1594
100
AcDbEntity
  8
DASH
100
AcDbLine
 10
-409.0
 20
955.4999999999999
 30
0.0
 11
-409.0
 21
940.4999999999999
 31
0.0
  0
LINE
  5
367
330
1594
100
AcDbEntity
  8
DASH
100
AcDbLine
 10
-509.1459960937499
 20
955.4999999999999
 30
0.0
 11
-409.0
 21
955.4999999999999
 31
0.0
  0
LINE
  5
368
330
1594
100
AcDbEntity
  8
DASH
100
AcDbLine
 10
-509.1459960937499
 20
940.4999999999999
 30
0.0
 11
-409.0
 21
940.4999999999999
 31
0.0
  0
LINE
  5
369
330
1594
100
AcDbEntity
  8
DASH
100
AcDbLine
 10
-514.1460571289062
 20
970.5
 30
0.0
 11
-509.1459960937499
 21
970.5
 31
0.0
  0
LINE
  5
36B
330
1594
100
AcDbEntity
  8
01_VIEW_PV
  6
Continuous
 62
     7
100
AcDbLine
 10
-555.0
 20
975.5
 30
0.0
 11
-545.0
 21
975.5
 31
0.0
  0
LINE
  5
36C
330
1594
100
AcDbEntity
  8
01_VIEW_PV
  6
Continuous
 62
     7
100
AcDbLine
 10
-555.0
 20
920.5
 30
0.0
 11
-545.0
 21
920.5
 31
0.0
  0
LINE
  5
36D
330
1594
100
AcDbEntity
  8
DASH
100
AcDbLine
 10
-545.0
 20
920.5
 30
0.0
 11
-514.1460571289062
 21
920.5
 31
0.0
  0
LINE
  5
36E
330
1594
100
AcDbEntity
  8
DASH
100
AcDbLine
 10
-545.0
 20
975.5
 30
0.0
 11
-514.1460571289062
 21
975.5
 31
0.0
  0
LINE
  5
36F
330
1594
100
AcDbEntity
  8
01_VIEW_PV
  6
Continuous
 62
     7
100
AcDbLine
 10
-630.0
 20
930.0
 30
0.0
 11
-555.0
 21
930.0
 31
0.0
  0
LINE
  5
370
330
1594
100
AcDbEntity
  8
01_VIEW_PV
  6
Continuous
 62
     7
100
AcDbLine
 10
-685.0
 20
980.4999999999999
 30
0.0
 11
-630.0
 21
980.4999999999999
 31
0.0
  0
LINE
  5
371
330
1594
100
AcDbEntity
  8
01_VIEW_PV
  6
Continuous
 62
     7
100
AcDbLine
 10
-685.0
 20
915.4999999999999
 30
0.0
 11
-677.0
 21
915.4999999999999
 31
0.0
  0
LINE
  5
372
330
1594
100
AcDbEntity
  8
01_VIEW_PV
  6
Continuous
 62
     7
100
AcDbLine
 10
-820.0
 20
975.5
 30
0.0
 11
-685.0
 21
975.5
 31
0.0
  0
LINE
  5
373
330
1594
100
AcDbEntity
  8
01_VIEW_PV
  6
Continuous
 62
     7
100
AcDbLine
 10
-820.0
 20
920.5
 30
0.0
 11
-685.0
 21
920.5
 31
0.0
  0
LINE
  5
37E
330
1594
100
AcDbEntity
  8
01_VIEW_PV
  6
Continuous
 62
     7
100
AcDbLine
 10
-885.0
 20
973.0
 30
0.0
 11
-870.0
 21
973.0
 31
0.0
  0
LINE
  5
380
330
1594
100
AcDbEntity
  8
01_VIEW_PV
  6
Continuous
 62
     7
100
AcDbLine
 10
-870.0
 20
918.0
 30
0.0
 11
-820.0
 21
918.0
 31
0.0
  0
LINE
  5
381
330
1594
100
AcDbEntity
  8
01_VIEW_PV
  6
Continuous
 62
     7
100
AcDbLine
 10
-870.0
 20
978.0
 30
0.0
 11
-820.0
 21
978.0
 31
0.0
  0
LINE
  5
382
330
1594
100
AcDbEntity
  8
CENTER
100
AcDbLine
 10
-1035.348496694382
 20
0.0
 30
0.0
 11
17.9166374206543
 21
0.0
 31
0.0
  0
ARC
  5
383
330
1594
100
AcDbEntity
  8
01_VIEW_PV
  6
Continuous
 62
     7
100
AcDbCircle
 10
-853.0
 20
88.0
 30
0.0
 40
2.0
100
AcDbArc
 50
90.00000326932669
 51
180.0000065386534
  0
ARC
  5
384
330
1594
100
AcDbEntity
  8
01_VIEW_PV
  6
Continuous
 62
     7
100
AcDbCircle
 10
-853.0
 20
-93.0
 30
0.0
 40
2.0
100
AcDbArc
 50
-180.0000065386534
 51
-90.00001009951592
  0
ARC
  5
389
330
1594
100
AcDbEntity
  8
01_VIEW_PV
  6
Continuous
 62
     7
100
AcDbCircle
 10
-673.0
 20
68.0
 30
0.0
 40
4.0
100
AcDbArc
 50
90.00000326932669
 51
180.0000065386534
  0
ARC
  5
38A
330
1594
100
AcDbEntity
  8
01_VIEW_PV
  6
Continuous
 62
     7
100
AcDbCircle
 10
-557.0
 20
68.0
 30
0.0
 40
4.0
100
AcDbArc
 50
0.0
 51
90.00000326932669
  0
ARC
  5
38B
330
1594
100
AcDbEntity
  8
01_VIEW_PV
  6
Continuous
 62
     7
100
AcDbCircle
 10
-673.0
 20
-61.0
 30
0.0
 40
4.0
100
AcDbArc
 50
-180.0000065386534
 51
-90.00001009951592
  0
ARC
  5
38C
330
1594
100
AcDbEntity
  8
01_VIEW_PV
  6
Continuous
 62
     7
100
AcDbCircle
 10
-557.0
 20
-61.0
 30
0.0
 40
4.0
100
AcDbArc
 50
-90.00000326932669
 51
0.0
  0
ARC
  5
38D
330
1594
100
AcDbEntity
  8
01_VIEW_PV
  6
Continuous
 62
     7
100
AcDbCircle
 10
-671.0
 20
66.0
 30
0.0
 40
4.0
100
AcDbArc
 50
90.00000326932669
 51
180.0000065386534
  0
ARC
  5
38E
330
1594
100
AcDbEntity
  8
01_VIEW_PV
  6
Continuous
 62
     7
100
AcDbCircle
 10
-559.0
 20
66.0
 30
0.0
 40
4.0
100
AcDbArc
 50
0.0
 51
90.00000326932669
  0
ARC
  5
38F
330
1594
100
AcDbEntity
  8
01_VIEW_PV
  6
Continuous
 62
     7
100
AcDbCircle
 10
-671.0
 20
-56.0
 30
0.0
 40
4.0
100
AcDbArc
 50
-180.0000065386534
 51
-90.00001009951592
  0
ARC
  5
390
330
1594
100
AcDbEntity
  8
01_VIEW_PV
  6
Continuous
 62
     7
100
AcDbCircle
 10
-559.0
 20
-56.0
 30
0.0
 40
4.0
100
AcDbArc
 50
-90.00000326932669
 51
0.0
  0
CIRCLE
  5
391
330
1594
100
AcDbEntity
  8
01_VIEW_PV
  6
Continuous
 62
     7
100
AcDbCircle
 10
-815.0
 20
135.0
 30
0.0
 40
16.0
  0
ARC
  5
392
330
1594
100
AcDbEntity
  8
01_VIEW_PV
  6
Continuous
 62
     7
100
AcDbCircle
 10
-815.0
 20
135.0
 30
0.0
 40
30.0
100
AcDbArc
 50
-59.9999953493619
 51
240.0000087182045
  0
ARC
  5
393
330
1594
100
AcDbEntity
  8
01_VIEW_PV
  6
Continuous
 62
     7
100
AcDbCircle
 10
-826.0
 20
115.0
 30
0.0
 40
4.0
100
AcDbArc
 50
90.00000326932669
 51
180.0000065386534
  0
ARC
  5
394
330
1594
100
AcDbEntity
  8
01_VIEW_PV
  6
Continuous
 62
     7
100
AcDbCircle
 10
-804.0
 20
115.0
 30
0.0
 40
4.0
100
AcDbArc
 50
0.0
 51
90.00000326932669
  0
ARC
  5
395
330
1594
100
AcDbEntity
  8
01_VIEW_PV
  6
Continuous
 62
     7
100
AcDbCircle
 10
-457.0
 20
-86.0
 30
0.0
 40
8.0
100
AcDbArc
 50
90.00000326932669
 51
180.0000065386534
  0
ARC
  5
396
330
1594
100
AcDbEntity
  8
01_VIEW_PV
  6
Continuous
 62
     7
100
AcDbCircle
 10
-457.0
 20
-76.0
 30
0.0
 40
8.0
100
AcDbArc
 50
90.00000326932669
 51
180.0000065386534
  0
ARC
  5
397
330
1594
100
AcDbEntity
  8
01_VIEW_PV
  6
Continuous
 62
     7
100
AcDbCircle
 10
-175.0
 20
-86.0
 30
0.0
 40
8.0
100
AcDbArc
 50
0.0
 51
90.00000326932669
  0
ARC
  5
398
330
1594
100
AcDbEntity
  8
01_VIEW_PV
  6
Continuous
 62
     7
100
AcDbCircle
 10
-175.0
 20
-76.0
 30
0.0
 40
8.0
100
AcDbArc
 50
0.0
 51
90.00000326932669
  0
ARC
  5
399
330
1594
100
AcDbEntity
  8
01_VIEW_PV
  6
Continuous
 62
     7
100
AcDbCircle
 10
-457.0
 20
86.0
 30
0.0
 40
8.0
100
AcDbArc
 50
179.9999928782749
 51
270.0000029777908
  0
ARC
  5
39A
330
1594
100
AcDbEntity
  8
01_VIEW_PV
  6
Continuous
 62
     7
100
AcDbCircle
 10
-457.0
 20
76.0
 30
0.0
 40
8.0
100
AcDbArc
 50
179.9999928782749
 51
270.0000029777908
  0
ARC
  5
39B
330
1594
100
AcDbEntity
  8
01_VIEW_PV
  6
Continuous
 62
     7
100
AcDbCircle
 10
-175.0
 20
86.0
 30
0.0
 40
8.0
100
AcDbArc
 50
-90.00000326932669
 51
0.0
  0
ARC
  5
39C
330
1594
100
AcDbEntity
  8
01_VIEW_PV
  6
Continuous
 62
     7
100
AcDbCircle
 10
-175.0
 20
76.0
 30
0.0
 40
8.0
100
AcDbArc
 50
-90.00000326932669
 51
0.0
  0
ARC
  5
39D
330
1594
100
AcDbEntity
  8
01_VIEW_PV
  6
Continuous
 62
     7
100
AcDbCircle
 10
-112.9173355102539
 20
-113.0
 30
0.0
 40
20.0
100
AcDbArc
 50
8.130111695715486
 51
90.00000326932669
  0
ARC
  5
39E
330
1594
100
AcDbEntity
  8
01_VIEW_PV
  6
Continuous
 62
     7
100
AcDbCircle
 10
-116.0
 20
113.0
 30
0.0
 40
20.0
100
AcDbArc
 50
-90.00000326932669
 51
0.0
  0
ARC
  5
39F
330
1594
100
AcDbEntity
  8
01_VIEW_PV
  6
Continuous
 62
     7
100
AcDbCircle
 10
-399.7999877929688
 20
362.4400024414062
 30
0.0
 40
20.0
100
AcDbArc
 50
90.00000326932669
 51
180.0000065386534
  0
ARC
  5
3A0
330
1594
100
AcDbEntity
  8
01_VIEW_PV
  6
Continuous
 62
     7
100
AcDbCircle
 10
-399.7999877929688
 20
171.5599975585937
 30
0.0
 40
20.0
100
AcDbArc
 50
-180.0000065386534
 51
-90.00001009951592
  0
ARC
  5
3A1
330
1594
100
AcDbEntity
  8
SN7U-6
100
AcDbCircle
 10
-437.8999938964843
 20
171.5599975585937
 30
0.0
 40
20.0
100
AcDbArc
 50
-179.9999928782749
 51
-90.00000326932669
  0
ARC
  5
3A2
330
1594
100
AcDbEntity
  8
SN7U-6
100
AcDbCircle
 10
-437.8999938964843
 20
362.4400024414062
 30
0.0
 40
20.0
100
AcDbArc
 50
90.00000326932669
 51
180.0000065386534
  0
CIRCLE
  5
3A5
330
1594
100
AcDbEntity
  8
01_VIEW_PV
  6
Continuous
 62
     7
100
AcDbCircle
 10
-80.0
 20
449.8359985351562
 30
0.0
 40
16.0
  0
ARC
  5
3A6
330
1594
100
AcDbEntity
  8
01_VIEW_PV
  6
Continuous
 62
     7
100
AcDbCircle
 10
-80.0
 20
449.8359985351562
 30
0.0
 40
30.0
100
AcDbArc
 50
-59.9999953493619
 51
240.0000087182045
  0
ARC
  5
3A7
330
1594
100
AcDbEntity
  8
01_VIEW_PV
  6
Continuous
 62
     7
100
AcDbCircle
 10
-91.0
 20
429.8359985351562
 30
0.0
 40
4.0
100
AcDbArc
 50
90.00000326932669
 51
180.0000065386534
  0
ARC
  5
3A8
330
1594
100
AcDbEntity
  8
01_VIEW_PV
  6
Continuous
 62
     7
100
AcDbCircle
 10
-69.0
 20
429.8359985351562
 30
0.0
 40
4.0
100
AcDbArc
 50
0.0
 51
90.00000326932669
  0
ARC
  5
3A9
330
1594
100
AcDbEntity
  8
01_VIEW_PV
  6
Continuous
 62
     7
100
AcDbCircle
 10
683.5589599609375
 20
0.0
 30
0.0
 40
38.0
100
AcDbArc
 50
330.2756824229419
 51
29.72433806762576
  0
ARC
  5
3AA
330
1594
100
AcDbEntity
  8
01_VIEW_PV
  6
Continuous
 62
     7
100
AcDbCircle
 10
-399.7999877929688
 20
895.43994140625
 30
0.0
 40
20.0
100
AcDbArc
 50
90.00000326932669
 51
180.0000065386534
  0
ARC
  5
3AB
330
1594
100
AcDbEntity
  8
01_VIEW_PV
  6
Continuous
 62
     7
100
AcDbCircle
 10
-399.7999877929688
 20
704.5599975585937
 30
0.0
 40
20.0
100
AcDbArc
 50
-179.9999928782749
 51
-90.00000326932669
  0
ARC
  5
3AC
330
1594
100
AcDbEntity
  8
SN7U-6
100
AcDbCircle
 10
-437.8999938964843
 20
704.5599975585937
 30
0.0
 40
20.0
100
AcDbArc
 50
-179.9999928782749
 51
-90.00000326932669
  0
ARC
  5
3AD
330
1594
100
AcDbEntity
  8
SN7U-6
100
AcDbCircle
 10
-437.8999938964843
 20
895.43994140625
 30
0.0
 40
20.0
100
AcDbArc
 50
90.00000326932669
 51
180.0000065386534
  0
CIRCLE
  5
3B0
330
1594
100
AcDbEntity
  8
01_VIEW_PV
  6
Continuous
 62
     7
100
AcDbCircle
 10
-795.0
 20
680.0
 30
0.0
 40
9.0
  0
CIRCLE
  5
3B1
330
1594
100
AcDbEntity
  8
01_VIEW_PV
  6
Continuous
 62
     7
100
AcDbCircle
 10
-535.0
 20
680.0
 30
0.0
 40
9.0
  0
LWPOLYLINE
  5
3B4
330
1594
100
AcDbEntity
  8
01_VIEW_PV
  6
Continuous
 62
     7
100
AcDbPolyline
 90
      111
 70
     0
 43
0.0
 10
509.0589599609375
 20
-130.0
 10
509.3709369358069
 20
-128.7489417807055
 10
509.6564340754962
 20
-127.6850032350423
 10
510.1792237817976
 20
-125.8748270550499
 10
511.0024160471356
 20
-123.2259255316858
 10
511.8469696197826
 20
-120.5675003895758
 10
512.2140791673631
 20
-119.381672547889
 10
512.5323126432682
 20
-118.3204887353974
 10
512.8071736305976
 20
-117.3693200530094
 10
513.0440508910438
 20
-116.5166536195808
 10
513.448224513838
 20
-114.9709154051051
 10
513.7407672262271
 20
-113.7600937649151
 10
513.9531355308315
 20
-112.8192033883848
 10
514.2587524245871
 20
-111.3495076589052
 10
514.4051205365548
 20
-110.5862278420946
 10
514.5468139648437
 20
-109.8026580810547
 10
514.7709587092873
 20
-108.46475517194
 10
515.1458861407196
 20
-106.037365019413
 10
515.4264114288486
 20
-104.1935963616605
 10
515.6441614265692
 20
-102.8249676463998
 10
515.8148740803676
 20
-101.8179836966865
 10
516.0877250261765
 20
-100.3560624602879
 10
516.2335675890045
 20
-99.65352711336922
 10
516.3868360306271
 20
-98.97398850829114
 10
516.5323332334216
 20
-98.382648489347
 10
516.6754373255629
 20
-97.84953230416276
 10
516.8159614935137
 20
-97.3701004812799
 10
516.9536877211448
 20
-96.93991153914405
 10
517.2287907590271
 20
-96.18801947184039
 10
517.4890917369374
 20
-95.59408108215542
 10
517.7331426614641
 20
-95.12791533647485
 10
517.9600230470294
 20
-94.7640562962413
 10
518.1693335490031
 20
-94.48143916747829
 10
518.3611299606792
 20
-94.26289721208332
 10
518.5358345310864
 20
-94.094600765797
 10
518.8576846903637
 20
-93.85389979747953
 10
519.1131088489973
 20
-93.72035146602677
 10
519.3128947409331
 20
-93.64775096659414
 10
519.6262635769301
 20
-93.5848465807391
 10
519.9566650390624
 20
-93.57926940917968
 10
520.167914973176
 20
-93.60494146300331
 10
520.5814532720653
 20
-93.70941580914404
 10
520.9613366974589
 20
-93.85590064725102
 10
521.30701747544
 20
-94.02186262842496
 10
521.6193046598414
 20
-94.19307966033821
 10
522.1869583375076
 20
-94.54367224135209
 10
522.6295843612917
 20
-94.8427063867212
 10
523.3191083081352
 20
-95.33636961079455
 10
524.0373896145784
 20
-95.86802758060283
 10
525.2545011688535
 20
-96.76206647454648
 10
526.207384700078
 20
-97.420432666524
 10
526.9419411761918
 20
-97.88550155342999
 10
527.502937499094
 20
-98.208932320794
 10
528.3589649620164
 20
-98.63948130552849
 10
528.7928831630381
 20
-98.82491348534145
 10
529.2303466796875
 20
-98.9872055053711
 10
529.6822809701053
 20
-99.12772562849042
 10
530.1087085674422
 20
-99.23635685531003
 10
530.9142032362098
 20
-99.38408557850694
 10
531.6238965609194
 20
-99.45876742394531
 10
532.2473818977768
 20
-99.48676589083264
 10
532.7940199030392
 20
-99.48564450594101
 10
533.7509803858229
 20
-99.43368403537721
 10
534.4671574170198
 20
-99.35952626287045
 10
535.5352989587771
 20
-99.20481982446169
 10
536.5915292087317
 20
-99.01432987636304
 10
538.370888035098
 20
-98.65534207849098
 10
539.6562532615445
 20
-98.40913060633615
 10
540.5851270240365
 20
-98.26435643087265
 10
541.2588458590667
 20
-98.18957205479577
 10
541.7498981782111
 20
-98.15728719988888
 10
542.4615954570848
 20
-98.15429803585963
 10
543.1409301757812
 20
-98.21482849121094
 10
543.5391318040236
 20
-98.28694427159062
 10
543.9125065361586
 20
-98.38242793238363
 10
544.2627296233631
 20
-98.49841125077889
 10
544.5913561329298
 20
-98.63229819831623
 10
544.899830012693
 20
-98.7817405671273
 10
545.4702283896518
 20
-99.12489991854075
 10
545.9728916152214
 20
-99.50845495744978
 10
546.416529074863
 20
-99.91998067110298
 10
546.8086598460473
 20
-100.3494519511944
 10
547.1557836157703
 20
-100.7888223043149
 10
547.4635260060652
 20
-101.2316748976424
 10
547.7367622795079
 20
-101.6729335328797
 10
547.9797227613562
 20
-102.1086232793618
 10
548.1960827837617
 20
-102.535672264828
 10
548.5725752363114
 20
-103.3824568968193
 10
548.8715084868332
 20
-104.1697166836092
 10
549.1103355605462
 20
-104.8915436333712
 10
549.3023081173311
 20
-105.5467192499995
 10
549.6011146673294
 20
-106.7419955448613
 10
549.7950979610577
 20
-107.6754562200189
 10
549.9241481463005
 20
-108.3942996733901
 10
550.0920648143502
 20
-109.499598730772
 10
550.2301408687517
 20
-110.6334607691414
 10
550.3450172623315
 20
-111.8605058599478
 10
550.4245371651962
 20
-113.03090221853
 10
550.4752732687223
 20
-114.1418810376683
 10
550.5113391958769
 20
-116.2483283883234
 10
550.483439408318
 20
-118.1011975609074
 10
550.4166443283626
 20
-119.7170879614429
 10
550.3278524559513
 20
-121.1182935499077
 10
550.2283347066972
 20
-122.3288735159317
 10
550.1254908908204
 20
-123.372429187857
 10
549.9124994826187
 20
-125.1536190922271
 10
549.7272665689409
 20
-126.4433843155027
 10
549.5751726715093
 20
-127.379990518247
 10
549.3276181553191
 20
-128.7283822317802
 10
549.1957728418651
 20
-129.3744173553786
 10
549.0589599609375
 20
-130.0
  0
LINE
  5
894
330
1594
100
AcDbEntity
  8
NOSE
100
AcDbLine
 10
-386.8664356981897
 20
-403.4634932849503
 30
0.0
 11
-1236.866435698189
 21
-403.4634932849503
 31
0.0
  0
LINE
  5
896
330
1594
100
AcDbEntity
  8
NOSE
100
AcDbLine
 10
-1236.866435698189
 20
-754.4600863935234
 30
0.0
 11
-699.2036323228902
 21
-754.4600863935235
 31
0.0
  0
LINE
  5
94F
330
1594
100
AcDbEntity
  8
NOSE
100
AcDbLine
 10
-1236.866435698189
 20
-403.4634932849503
 30
0.0
 11
-1236.866435698189
 21
-754.4600863935234
 31
0.0
  0
DIMENSION
  5
951
330
1594
100
AcDbEntity
  8
DIM
100
AcDbDimension
  2
*D0
 10
-1030.0
 20
-690.7434803653077
 30
0.0
 11
-995.0591165439838
 21
-690.7434803653077
 31
0.0
 12
-0.0000000000002274
 22
350.0
 32
0.0
 70
   128
 71
     5
 42
-1.0
 73
     0
 74
     0
 75
     0
  3
STANDARD
100
AcDbAlignedDimension
 13
-960.0
 23
-653.1191610573819
 33
0.0
 14
-1030.0
 24
-621.1191610573819
 34
0.0
100
AcDbRotatedDimension
1001
ACAD
1000
DSTYLE
1002
{
1070
   172
1070
     1
1070
   144
1040
0.03937
1070
   271
1070
     2
1070
   178
1070
     1
1070
    41
1040
3.0
1070
   171
1070
     0
1070
   170
1070
     1
1002
}
  0
TEXT
  5
95D
330
1594
100
AcDbEntity
  8
NOSE
100
AcDbText
 10
-1216.932427950667
 20
-737.052629862228
 30
0.0
 40
8.33440027482986
  1
ASA 1-1/16-12
  7
ROMANS
100
AcDbText
  0
DIMENSION
  5
A04
330
1594
100
AcDbEntity
  8
DIM
100
AcDbDimension
  2
*D1
 10
-1090.523451354862
 20
-581.172161057382
 30
0.0
 11
-1045.317250186835
 21
-517.7204848741894
 31
0.0
 12
-765.3593517861462
 22
51.96181913616874
 32
0.0
 70
   128
  1
\S1.610^ 1.608;DIA [%%c40.894\H2;\S-0^ -0.050;\H4.17;]
 71
     5
 42
-1.0
 73
     0
 74
     0
 75
     0
  3
STANDARD
100
AcDbAlignedDimension
 13
-1026.465747885232
 23
-622.066161057382
 33
0.0
 14
-1026.465747885233
 24
-581.172161057382
 34
0.0
 50
90.0
100
AcDbRotatedDimension
1001
ACAD
1000
DSTYLE
1002
{
1070
   172
1070
     1
1070
   144
1040
0.03937
1070
   271
1070
     2
1070
   178
1070
     1
1070
    41
1040
3.0
1070
   171
1070
     0
1070
   170
1070
     1
1002
}
  0
TEXT
  5
A05
330
1594
100
AcDbEntity
  8
DIM
100
AcDbText
 10
-1087.205113373881
 20
-649.6340788658301
 30
0.0
 40
4.16720013741493
  1
Threaded Hole
  7
ROMANS
 72
     2
 11
-1042.358102371225
 21
-647.5504787971226
 31
0.0
100
AcDbText
 73
     2
  0
TEXT
  5
A06
330
1594
100
AcDbEntity
  8
DIM
100
AcDbText
 10
-1087.998865781008
 20
-642.8871834052536
 30
0.0
 40
4.16720013741493
  1
5/16-24 UNF
  7
ROMANS
 72
     2
 11
-1042.358102371225
 21
-640.8035833365461
 31
0.0
100
AcDbText
 73
     2
  0
DIMENSION
  5
A07
330
1594
100
AcDbEntity
  8
DIM
100
AcDbDimension
  2
*D2
 10
-990.3000000000002
 20
-661.0273051490707
 30
0.0
 11
-1065.038534386848
 21
-661.0273051490707
 31
0.0
 12
-765.3593517861462
 22
51.96181913616874
 32
0.0
 70
   128
  1
\S1.582^ 1.542; [39.7%%p0.4]
 71
     5
 42
-1.0
 73
     0
 74
     0
 75
     0
  3
STANDARD
100
AcDbAlignedDimension
 13
-1030.0
 23
-617.822633267805
 33
0.0
 14
-990.3000000000002
 24
-621.3557926203752
 34
0.0
100
AcDbRotatedDimension
1001
ACAD
1000
DSTYLE
1002
{
1070
   144
1040
0.03937
1070
   271
1070
     2
1070
   178
1070
     1
1070
    41
1040
3.0
1070
   171
1070
     0
1070
   170
1070
     1
1002
}
  0
CIRCLE
  5
A08
330
1594
100
AcDbEntity
  8
NOSE
100
AcDbCircle
 10
-1201.048740539866
 20
-601.9189076403332
 30
0.0
 40
20.4
  0
LINE
  5
A09
330
1594
100
AcDbEntity
  8
CENTER
  6
CENTERX2
100
AcDbLine
 10
-1220.061961936168
 20
-601.9189076403332
 30
0.0
 11
-1182.276745656202
 21
-601.9189076403332
 31
0.0
  0
DIMENSION
  5
A18
330
1594
100
AcDbEntity
  8
DIM
100
AcDbDimension
  2
*D3
 10
-1172.159388288606
 20
-585.719161057382
 30
0.0
 11
-1131.036787189287
 21
-571.7107369410213
 31
0.0
 12
-775.3593517861462
 22
51.96181913616874
 32
0.0
 70
   128
  1
\S1.1677^ 1.1579;DIA [%%c29.4\H2;\S+0.2^ +0;\H4.17;]
 71
     5
 42
-1.0
 73
     0
 74
     0
 75
     0
  3
STANDARD
100
AcDbAlignedDimension
 13
-1201.048740539866
 23
-615.1191610573818
 33
0.0
 14
-1198.648740539866
 24
-585.719161057382
 34
0.0
 50
90.0
100
AcDbRotatedDimension
1001
ACAD
1000
DSTYLE
1002
{
1070
   172
1070
     1
1070
   144
1040
0.03937
1070
   271
1070
     2
1070
   178
1070
     1
1070
    41
1040
3.0
1070
   171
1070
     0
1070
   170
1070
     1
1002
}
  0
DIMENSION
  5
A19
330
1594
100
AcDbEntity
  8
DIM
100
AcDbDimension
  2
*D4
 10
-1198.648740539866
 20
-559.3076429434122
 30
0.0
 11
-1169.571473248288
 21
-559.3076429434122
 31
0.0
 12
-0.0000000000002274
 22
350.0
 32
0.0
  1
\S.1955^ .1915; [4.86\H2;\S+0.1^ +0;\H4.17;]
 71
     5
 42
-1.0
 73
     0
 74
     0
 75
     0
  3
STANDARD
100
AcDbAlignedDimension
 13
-1203.448740539866
 23
-585.719161057382
 33
0.0
 14
-1198.648740539866
 24
-585.719161057382
 34
0.0
100
AcDbRotatedDimension
1001
ACAD
1000
DSTYLE
1002
{
1070
   172
1070
     1
1070
   144
1040
0.03937
1070
   271
1070
     2
1070
   178
1070
     1
1070
    41
1040
3.0
1070
   171
1070
     0
1070
   170
1070
     1
1002
}
  0
ARC
  5
A1A
330
1594
100
AcDbEntity
  8
NOSE
100
AcDbCircle
 10
-1201.048740539866
 20
-601.9189076403332
 30
0.0
 40
13.5
100
AcDbArc
 50
100.2403483211861
 51
79.75965167881385
  0
LINE
  5
A1B
330
1594
100
AcDbEntity
  8
CENTER
  6
CENTERX2
100
AcDbLine
 10
-1201.048740539866
 20
-583.0460126761941
 30
0.0
 11
-1201.048740539866
 21
-622.1894269411587
 31
0.0
  0
LINE
  5
A1C
330
1594
100
AcDbEntity
  8
NOSE
100
AcDbLine
 10
-1203.448740539866
 20
-586.0189076403332
 30
0.0
 11
-1198.648740539866
 21
-586.0189076403332
 31
0.0
  0
LINE
  5
A1D
330
1594
100
AcDbEntity
  8
NOSE
100
AcDbLine
 10
-1203.448740539866
 20
-586.0189076403332
 30
0.0
 11
-1203.448740539866
 21
-588.6339537450425
 31
0.0
  0
LINE
  5
A1E
330
1594
100
AcDbEntity
  8
NOSE
100
AcDbLine
 10
-1198.648740539866
 20
-586.0189076403332
 30
0.0
 11
-1198.648740539866
 21
-588.6339537450425
 31
0.0
  0
DIMENSION
  5
A1F
330
1594
100
AcDbEntity
  8
DIM
100
AcDbDimension
  2
*D5
 10
-923.1209453857864
 20
-654.119161057382
 30
0.0
 11
-903.0644876834541
 21
-511.3520710657613
 31
0.0
 12
-0.0000000000002274
 22
350.0
 32
0.0
 70
   128
 71
     5
 42
-1.0
 73
     0
 74
     0
 75
     0
  3
STANDARD
100
AcDbAlignedDimension
 13
-946.0000000000002
 23
-549.1191610573819
 33
0.0
 14
-946.0000000000002
 24
-654.1191610573819
 34
0.0
 50
90.0
100
AcDbRotatedDimension
1001
ACAD
1000
DSTYLE
1002
{
1070
   172
1070
     1
1070
   144
1040
0.03937
1070
   271
1070
     2
1070
   178
1070
     1
1070
    41
1040
3.0
1070
   171
1070
     0
1070
   170
1070
     1
1002
}
  0
LINE
  5
A20
330
1594
100
AcDbEntity
  8
NOSE
100
AcDbLine
 10
-945.0000000000002
 20
-554.4189076403332
 30
0.0
 11
-893.0000000000003
 21
-554.4189076403332
 31
0.0
  0
LINE
  5
A21
330
1594
100
AcDbEntity
  8
NOSE
100
AcDbLine
 10
-945.0000000000002
 20
-649.4189076403332
 30
0.0
 11
-893.0000000000001
 21
-649.4189076403332
 31
0.0
  0
LINE
  5
A22
330
1594
100
AcDbEntity
  8
CENTER
  6
CENTERX2
100
AcDbLine
 10
-1031.0
 20
-601.9189076403332
 30
0.0
 11
-721.2793471969018
 21
-601.9189076403332
 31
0.0
  0
DIMENSION
  5
A23
330
1594
100
AcDbEntity
  8
DIM
100
AcDbDimension
  2
*D6
 10
-941.0000000000001
 20
-562.5117787424978
 30
0.0
 11
-1000.572076684516
 21
-562.5117787424978
 31
0.0
 12
-765.3593517861462
 22
51.96181913616874
 32
0.0
 70
   128
 71
     5
 42
-1.0
 73
     0
 74
     0
 75
     0
  3
STANDARD
100
AcDbAlignedDimension
 13
-1030.0
 23
-582.1191610573818
 33
0.0
 14
-941.0000000000001
 24
-584.6191610573819
 34
0.0
100
AcDbRotatedDimension
1001
ACAD
1000
DSTYLE
1002
{
1070
   172
1070
     1
1070
   144
1040
0.03937
1070
   271
1070
     2
1070
   178
1070
     1
1070
    41
1040
3.0
1070
   171
1070
     0
1070
   170
1070
     1
1002
}
  0
DIMENSION
  5
A24
330
1594
100
AcDbEntity
  8
DIM
100
AcDbDimension
  2
*D7
 10
-1065.720346689879
 20
-615.0681610573819
 30
0.0
 11
-1018.430545453145
 21
-539.1563188879882
 31
0.0
 12
-765.3593517861462
 22
51.96181913616874
 32
0.0
 70
   128
  1
\S1.0630^ 1.0625;DIA [%%c26.998\H2;\S+0.012^ +0;\H4.17;]
 71
     5
 42
-1.0
 73
     0
 74
     0
 75
     0
  3
STANDARD
100
AcDbAlignedDimension
 13
-1028.0
 23
-588.1701610573819
 33
0.0
 14
-1028.0
 24
-615.0681610573819
 34
0.0
 50
90.0
100
AcDbRotatedDimension
1001
ACAD
1000
DSTYLE
1002
{
1070
   172
1070
     1
1070
   144
1040
0.03937
1070
   271
1070
     2
1070
   178
1070
     1
1070
    41
1040
3.0
1070
   171
1070
     0
1070
   170
1070
     1
1002
}
  0
LINE
  5
A25
330
1594
100
AcDbEntity
  8
NOSE
100
AcDbLine
 10
-1030.0
 20
-585.9679076403333
 30
0.0
 11
-950.5000000000002
 21
-585.9679076403333
 31
0.0
  0
LINE
  5
A26
330
1594
100
AcDbEntity
  8
NOSE
100
AcDbLine
 10
-1026.465747885233
 20
-622.3659076403333
 30
0.0
 11
-961.0000000000002
 21
-622.3659076403333
 31
0.0
  0
LINE
  5
A27
330
1594
100
AcDbEntity
  8
NOSE
100
AcDbLine
 10
-1028.0
 20
-615.3679076403333
 30
0.0
 11
-950.5000000000002
 21
-615.3679076403333
 31
0.0
  0
LINE
  5
A28
330
1594
100
AcDbEntity
  8
NOSE
100
AcDbLine
 10
-1028.0
 20
-588.4699076403332
 30
0.0
 11
-950.5000000000002
 21
-588.4699076403332
 31
0.0
  0
LINE
  5
A29
330
1594
100
AcDbEntity
  8
NOSE
100
AcDbLine
 10
-1026.465747885233
 20
-581.4719076403332
 30
0.0
 11
-961.0000000000002
 21
-581.4719076403332
 31
0.0
  0
SOLID
  5
A2A
330
1594
100
AcDbEntity
  8
DIM
  6
Continuous
 62
     1
100
AcDbTrace
 10
992.619615242271
 20
-624.883852511006
 30
0.0
 11
990.3000000000002
 21
-622.066161057382
 31
0.0
 12
991.5803847577295
 22
-625.483852511006
 32
0.0
 13
991.5803847577295
 23
-625.483852511006
 33
0.0
210
0.0
220
0.0
230
-1.0
1001
ACAD
1000
DSTYLE
1002
{
1070
    74
1070
     1
1070
    40
1040
1.0
1002
}
  0
LINE
  5
144D
330
1594
100
AcDbEntity
  8
DIM
 62
     1
100
AcDbLine
 10
-992.1000000000002
 20
-625.1838525110059
 30
0.0
 11
-1003.427456873554
 21
-644.8035833365461
 31
0.0
1001
ACAD
1000
R13OBJECT
1002
{
1005
A2A
1002
}
  0
LINE
  5
A2B
330
1594
100
AcDbEntity
  8
NOSE
100
AcDbLine
 10
-1028.0
 20
-588.4699076403332
 30
0.0
 11
-1028.0
 21
-615.3679076403332
 31
0.0
  0
LINE
  5
A2C
330
1594
100
AcDbEntity
  8
NOSE
100
AcDbLine
 10
-1030.0
 20
-582.4189076403333
 30
0.0
 11
-1030.0
 21
-618.1223798507564
 31
0.0
  0
LINE
  5
A2D
330
1594
100
AcDbEntity
  8
DIM
100
AcDbLine
 10
-1003.427456873554
 20
-644.8035833365461
 30
0.0
 11
-1037.310769514337
 21
-644.8035833365461
 31
0.0
  0
LINE
  5
A2E
330
1594
100
AcDbEntity
  8
NOSE
100
AcDbLine
 10
-1028.0
 20
-615.3679076403332
 30
0.0
 11
-1030.0
 21
-616.5226081787125
 31
0.0
  0
LINE
  5
A2F
330
1594
100
AcDbEntity
  8
NOSE
100
AcDbLine
 10
-1030.0
 20
-621.4189076403332
 30
0.0
 11
-1026.465747885233
 21
-622.3659076403333
 31
0.0
  0
LINE
  5
A30
330
1594
100
AcDbEntity
  8
NOSE
100
AcDbLine
 10
-1030.0
 20
-587.3152071019539
 30
0.0
 11
-1028.0
 21
-588.4699076403332
 31
0.0
  0
LINE
  5
A31
330
1594
100
AcDbEntity
  8
NOSE
100
AcDbLine
 10
-1030.0
 20
-582.4189076403333
 30
0.0
 11
-1026.465747885233
 21
-581.4719076403332
 31
0.0
  0
LWPOLYLINE
  5
A32
330
1594
100
AcDbEntity
  8
NOSE
100
AcDbPolyline
 90
       13
 70
   128
 43
0.0
 10
960.0000000000003
 20
-573.8621025731528
 10
949.4793277259869
 20
-575.4227770402318
 10
944.5944143898486
 20
-577.828480253843
 10
940.520198018093
 20
-581.3758539696292
 10
937.7253614195176
 20
-585.8995165603199
 10
936.2229420397833
 20
-591.0787514625133
 10
935.9474333725618
 20
-601.7795927724654
 10
937.017179076342
 20
-612.4650871811942
 10
937.6917595514205
 20
-617.931276598315
 10
939.8828190878379
 20
-622.4021668419911
 10
944.1534303120628
 20
-625.3544456755287
 10
949.5236023860705
 20
-627.2500474324487
 10
960.0000000000001
 20
-629.8424969649243
210
0.0
220
0.0
230
-1.0
  0
LINE
  5
A33
330
1594
100
AcDbEntity
  8
NOSE
100
AcDbLine
 10
-950.5000000000002
 20
-584.9189076403332
 30
0.0
 11
-950.5000000000002
 21
-618.9189076403334
 31
0.0
  0
LINE
  5
A34
330
1594
100
AcDbEntity
  8
NOSE
100
AcDbLine
 10
-941.0000000000001
 20
-584.9189076403332
 30
0.0
 11
-941.0000000000001
 21
-618.9189076403334
 31
0.0
  0
LINE
  5
A35
330
1594
100
AcDbEntity
  8
NOSE
  6
Continuous
 62
     7
100
AcDbLine
 10
-986.9000000000001
 20
-615.3679076403332
 30
0.0
 11
-986.9000000000003
 21
-622.3659076403333
 31
0.0
  0
LINE
  5
A36
330
1594
100
AcDbEntity
  8
NOSE
  6
Continuous
 62
     1
100
AcDbLine
 10
-986.3500000000001
 20
-615.3679076403332
 30
0.0
 11
-986.3500000000001
 21
-622.3659076403333
 31
0.0
  0
LINE
  5
A37
330
1594
100
AcDbEntity
  8
NOSE
  6
Continuous
 62
     7
100
AcDbLine
 10
-993.7000000000004
 20
-615.3679076403332
 30
0.0
 11
-993.7000000000001
 21
-622.3659076403333
 31
0.0
  0
LINE
  5
A38
330
1594
100
AcDbEntity
  8
NOSE
  6
Continuous
 62
     1
100
AcDbLine
 10
-994.2500000000002
 20
-615.3679076403332
 30
0.0
 11
-994.2500000000002
 21
-622.3659076403333
 31
0.0
  0
LINE
  5
A39
330
1594
100
AcDbEntity
  8
CENTER
100
AcDbLine
 10
-990.3000000000002
 20
-612.2639585200833
 30
0.0
 11
-990.3000000000002
 21
-624.8305392033266
 31
0.0
  0
LINE
  5
A3A
330
1594
100
AcDbEntity
  8
NOSE
  6
Continuous
 62
     7
100
AcDbLine
 10
-945.0000000000002
 20
-625.7276575272193
 30
0.0
 11
-945.0000000000002
 21
-653.4189076403331
 31
0.0
  0
LINE
  5
A3B
330
1594
100
AcDbEntity
  8
NOSE
  6
Continuous
 62
     7
100
AcDbLine
 10
-960.0000000000001
 20
-623.3659076403332
 30
0.0
 11
-960.0
 21
-653.4189076403331
 31
0.0
  0
LINE
  5
A3C
330
1594
100
AcDbEntity
  8
NOSE
100
AcDbLine
 10
-946.0000000000002
 20
-654.4189076403331
 30
0.0
 11
-946.0000000000002
 21
-626.1224630305009
 31
0.0
  0
LINE
  5
A3D
330
1594
100
AcDbEntity
  8
NOSE
100
AcDbLine
 10
-959.0
 20
-629.6077068747924
 30
0.0
 11
-959.0
 21
-654.4189076403331
 31
0.0
  0
LINE
  5
A3E
330
1594
100
AcDbEntity
  8
NOSE
100
AcDbLine
 10
-959.0
 20
-654.4189076403331
 30
0.0
 11
-946.0000000000002
 21
-654.4189076403331
 31
0.0
  0
LINE
  5
A3F
330
1594
100
AcDbEntity
  8
NOSE
100
AcDbLine
 10
-960.0
 20
-653.4189076403331
 30
0.0
 11
-959.0
 21
-654.4189076403331
 31
0.0
  0
LINE
  5
A40
330
1594
100
AcDbEntity
  8
NOSE
100
AcDbLine
 10
-946.0000000000002
 20
-654.4189076403331
 30
0.0
 11
-945.0000000000002
 21
-653.4189076403331
 31
0.0
  0
LINE
  5
A41
330
1594
100
AcDbEntity
  8
NOSE
100
AcDbLine
 10
-950.5000000000002
 20
-618.9189076403334
 30
0.0
 11
-941.0000000000001
 21
-618.9189076403334
 31
0.0
  0
ARC
  5
A42
330
1594
100
AcDbEntity
  8
NOSE
100
AcDbCircle
 10
-961.0000000000002
 20
-623.3659076403332
 30
0.0
 40
1.0
100
AcDbArc
 50
0.0
 51
90.00000000000003
  0
LINE
  5
A43
330
1594
100
AcDbEntity
  8
NOSE
100
AcDbLine
 10
-941.0000000000001
 20
-615.3679076403333
 30
0.0
 11
-937.269494532804
 21
-615.3679076403333
 31
0.0
  0
LINE
  5
A44
330
1594
100
AcDbEntity
  8
NOSE
  6
Continuous
 62
     7
100
AcDbLine
 10
-945.0000000000002
 20
-550.4189076403332
 30
0.0
 11
-945.0000000000002
 21
-577.5682130155148
 31
0.0
  0
LINE
  5
A45
330
1594
100
AcDbEntity
  8
NOSE
  6
Continuous
 62
     7
100
AcDbLine
 10
-960.0000000000003
 20
-550.4189076403332
 30
0.0
 11
-960.0000000000003
 21
-580.4719076403332
 31
0.0
  0
LINE
  5
A46
330
1594
100
AcDbEntity
  8
NOSE
100
AcDbLine
 10
-946.0000000000002
 20
-576.9787820414826
 30
0.0
 11
-946.0000000000002
 21
-549.4189076403332
 31
0.0
  0
LINE
  5
A47
330
1594
100
AcDbEntity
  8
NOSE
100
AcDbLine
 10
-959.0000000000001
 20
-549.4189076403332
 30
0.0
 11
-959.0000000000001
 21
-573.9122196394248
 31
0.0
  0
LINE
  5
A48
330
1594
100
AcDbEntity
  8
NOSE
100
AcDbLine
 10
-950.5000000000002
 20
-584.9189076403332
 30
0.0
 11
-941.0000000000001
 21
-584.9189076403332
 31
0.0
  0
ARC
  5
A49
330
1594
100
AcDbEntity
  8
NOSE
100
AcDbCircle
 10
-961.0000000000002
 20
-580.4719076403332
 30
0.0
 40
1.0
100
AcDbArc
 50
270.0
 51
0.0
  0
LINE
  5
A4A
330
1594
100
AcDbEntity
  8
NOSE
100
AcDbLine
 10
-941.0000000000001
 20
-588.4699076403332
 30
0.0
 11
-936.8195531681928
 21
-588.4699076403332
 31
0.0
  0
LINE
  5
A4B
330
1594
100
AcDbEntity
  8
NOSE
100
AcDbLine
 10
-959.0000000000001
 20
-549.4189076403332
 30
0.0
 11
-946.0000000000002
 21
-549.4189076403332
 31
0.0
  0
LINE
  5
A4C
330
1594
100
AcDbEntity
  8
NOSE
100
AcDbLine
 10
-959.0000000000001
 20
-549.4189076403332
 30
0.0
 11
-960.0000000000003
 21
-550.4189076403332
 31
0.0
  0
LINE
  5
A4D
330
1594
100
AcDbEntity
  8
NOSE
100
AcDbLine
 10
-946.0000000000002
 20
-549.4189076403332
 30
0.0
 11
-945.0000000000002
 21
-550.4189076403332
 31
0.0
  0
LINE
  5
A6C
330
1594
100
AcDbEntity
  8
NOSE
100
AcDbLine
 10
-431.7427744123287
 20
-600.041488081168
 30
0.0
 11
-699.2036323228985
 21
-754.4600863935236
 31
0.0
  0
LINE
  5
A6D
330
1594
100
AcDbEntity
  8
NOSE
100
AcDbLine
 10
-390.1833172107281
 20
-671.658342514409
 30
0.0
 11
-699.2036323228902
 21
-754.4600863935235
 31
0.0
  0
TEXT
  5
A6E
330
1594
100
AcDbEntity
  8
NOSE
100
AcDbText
 10
-588.9858167664608
 20
-757.3864447243083
 30
0.0
 40
15.0
  1
SPINDLE NOSE
  7
ROMANS
100
AcDbText
  0
LINE
  5
A7C
330
1594
100
AcDbEntity
  8
NOSE
100
AcDbLine
 10
-417.6893657622618
 20
-604.7762957159695
 30
0.0
 11
-434.7837704636362
 21
-613.8655519243285
 31
0.0
  0
LWPOLYLINE
  5
A7D
330
1594
100
AcDbEntity
  8
NOSE
100
AcDbPolyline
 90
       24
 70
   128
 43
0.0
 10
-417.5893657622594
 20
-604.7762957159693
 10
-421.9760159308689
 20
-601.6372713908071
 10
-425.9419878468801
 20
-599.8050521573437
 10
-429.3359036010299
 20
-599.3495723274569
 10
-432.0282202005893
 20
-600.2882171942906
 10
-433.9161741196064
 20
-602.5851594498125
 10
-434.9277036987707
 20
-606.152726683904
 10
-435.024199680101
 20
-610.8547477686576
 10
-434.2019788907923
 20
-616.5117503991264
 10
-432.4924248269144
 20
-622.9078114046392
 10
-429.9607897709951
 20
-629.7987983598944
 10
-426.703704165685
 20
-636.9216879202647
 10
-422.8454883086726
 20
-644.0046052080665
 10
-418.533407148447
 20
-650.7772010546174
 10
-413.9320493014767
 20
-656.9809710072263
 10
-409.2170448391279
 20
-662.3791222330484
 10
-404.5683616312679
 20
-666.7656117081397
 10
-400.1634361196405
 20
-669.973010711418
 10
-396.1704007137866
 20
-671.8788954422185
 10
-392.7416663142754
 20
-672.4105198367879
 10
-390.0081049130954
 20
-671.5475922261312
 10
-388.0740543165939
 20
-669.323049852446
 10
-387.0133356566166
 20
-665.8218016814859
 10
-386.8664356981899
 20
-661.1774874966775
  0
LINE
  5
E91
330
1594
100
AcDbEntity
  8
01_VIEW_PV
  6
Continuous
 62
     7
100
AcDbLine
 10
-855.0000000000002
 20
-513.9189076403332
 30
0.0
 11
-855.0000000000002
 21
-694.9189076403331
 31
0.0
  0
LINE
  5
E92
330
1594
100
AcDbEntity
  8
01_VIEW_PV
  6
Continuous
 62
     7
100
AcDbLine
 10
-892.0000000000001
 20
-526.9189076403332
 30
0.0
 11
-892.0000000000001
 21
-676.9189076403331
 31
0.0
  0
LINE
  5
E93
330
1594
100
AcDbEntity
  8
01_VIEW_PV
  6
Continuous
 62
     7
100
AcDbLine
 10
-893.0000000000003
 20
-527.9189076403333
 30
0.0
 11
-893.0000000000003
 21
-675.9189076403331
 31
0.0
  0
LINE
  5
E94
330
1594
100
AcDbEntity
  8
01_VIEW_PV
  6
Continuous
 62
     7
100
AcDbLine
 10
-845.0000000000002
 20
-511.918861863966
 30
0.0
 11
-845.0000000000002
 21
-731.9189076403331
 31
0.0
  0
LINE
  5
EA7
330
1594
100
AcDbEntity
  8
DASH
100
AcDbLine
 10
-804.0000000000002
 20
-707.0189061144542
 30
0.0
 11
-804.0000000000002
 21
-731.9189076403331
 31
0.0
  0
LINE
  5
EA8
330
1594
100
AcDbEntity
  8
DASH
100
AcDbLine
 10
-786.0000000000002
 20
-707.0189061144542
 30
0.0
 11
-786.0000000000002
 21
-731.9189076403331
 31
0.0
  0
LINE
  5
EA9
330
1594
100
AcDbEntity
  8
CENTER
100
AcDbLine
 10
-795.0000000000002
 20
-702.2301259020519
 30
0.0
 11
-795.0000000000002
 21
-737.6630330065441
 31
0.0
  0
LINE
  5
EAA
330
1594
100
AcDbEntity
  8
01_VIEW_PV
  6
Continuous
 62
     7
100
AcDbLine
 10
-780.0000000000002
 20
-707.0189061144542
 30
0.0
 11
-774.1000976562502
 21
-712.9188923815441
 31
0.0
  0
LINE
  5
EAC
330
1594
100
AcDbEntity
  8
01_VIEW_PV
  6
Continuous
 62
     7
100
AcDbLine
 10
-809.999938964844
 20
-707.0188679674815
 30
0.0
 11
-815.9000244140626
 21
-712.9189076403331
 31
0.0
  0
LINE
  5
EAE
330
1594
100
AcDbEntity
  8
01_VIEW_PV
  6
Continuous
 62
     7
100
AcDbLine
 10
-825.0000000000001
 20
-716.9189000109386
 30
0.0
 11
-820.9999389648439
 21
-712.9188923815441
 31
0.0
  0
LINE
  5
EAF
330
1594
100
AcDbEntity
  8
01_VIEW_PV
  6
Continuous
 62
     7
100
AcDbLine
 10
-825.0000000000001
 20
-716.9189076403331
 30
0.0
 11
-825.0000000000001
 21
-731.9189076403331
 31
0.0
  0
LINE
  5
EB1
330
1594
100
AcDbEntity
  8
01_VIEW_PV
  6
Continuous
 62
     7
100
AcDbLine
 10
-765.0000000000002
 20
-716.9189228991221
 30
0.0
 11
-769.0000000000002
 21
-712.9189152697277
 31
0.0
  0
LINE
  5
EB2
330
1594
100
AcDbEntity
  8
01_VIEW_PV
  6
Continuous
 62
     7
100
AcDbLine
 10
-765.0000000000002
 20
-716.9189076403331
 30
0.0
 11
-765.0000000000002
 21
-731.9189076403331
 31
0.0
  0
LINE
  5
EB4
330
1594
100
AcDbEntity
  8
01_VIEW_PV
  6
Continuous
 62
     7
100
AcDbLine
 10
-785.0000610351565
 20
-616.9189143160535
 30
0.0
 11
-815.0000610351565
 21
-641.9189267138196
 31
0.0
  0
LINE
  5
EB5
330
1594
100
AcDbEntity
  8
01_VIEW_PV
  6
Continuous
 62
     7
100
AcDbLine
 10
-845.0000000000002
 20
-536.9189000109387
 30
0.0
 11
-785.0000000000002
 21
-551.9188961962414
 31
0.0
  0
LINE
  5
EB6
330
1594
100
AcDbEntity
  8
01_VIEW_PV
  6
Continuous
 62
     7
100
AcDbLine
 10
-810.0000000000003
 20
-707.0189061144542
 30
0.0
 11
-780.0000000000002
 21
-707.0189061144542
 31
0.0
  0
LINE
  5
EB7
330
1594
100
AcDbEntity
  8
01_VIEW_PV
  6
Continuous
 62
     7
100
AcDbLine
 10
-892.0000000000001
 20
-676.9189076403331
 30
0.0
 11
-855.0000000000002
 21
-676.9189076403331
 31
0.0
  0
LINE
  5
EB8
330
1594
100
AcDbEntity
  8
01_VIEW_PV
  6
Continuous
 62
     7
100
AcDbLine
 10
-893.0000000000003
 20
-675.9189457873057
 30
0.0
 11
-892.0000000000001
 21
-676.9189228991222
 31
0.0
  0
LINE
  5
EB9
330
1594
100
AcDbEntity
  8
01_VIEW_PV
  6
Continuous
 62
     7
100
AcDbLine
 10
-815.0000000000002
 20
-641.9189076403332
 30
0.0
 11
-815.0000000000002
 21
-681.9189076403331
 31
0.0
  0
LINE
  5
EBA
330
1594
100
AcDbEntity
  8
01_VIEW_PV
  6
Continuous
 62
     7
100
AcDbLine
 10
-853.0000000000002
 20
-696.9189076403331
 30
0.0
 11
-845.0000000000002
 21
-696.9189076403331
 31
0.0
  0
ARC
  5
EBB
330
1594
100
AcDbEntity
  8
01_VIEW_PV
  6
Continuous
 62
     7
100
AcDbCircle
 10
-853.0000000000002
 20
-694.9189076403331
 30
0.0
 40
2.0
100
AcDbArc
 50
179.9999934613466
 51
269.9999899004841
  0
LINE
  5
EBC
330
1594
100
AcDbEntity
  8
01_VIEW_PV
  6
Continuous
 62
     7
100
AcDbLine
 10
-845.0000000000002
 20
-666.9189000109387
 30
0.0
 11
-814.9999389648439
 21
-649.4188809374524
 31
0.0
  0
LINE
  5
EBD
330
1594
100
AcDbEntity
  8
01_VIEW_PV
  6
Continuous
 62
     7
100
AcDbLine
 10
-775.0000000000002
 20
-616.9189076403332
 30
0.0
 11
-775.0000000000002
 21
-681.9189076403331
 31
0.0
  0
LINE
  5
EBE
330
1594
100
AcDbEntity
  8
01_VIEW_PV
  6
Continuous
 62
     7
100
AcDbLine
 10
-785.0000000000002
 20
-551.9189076403332
 30
0.0
 11
-785.0000000000002
 21
-616.9189076403332
 31
0.0
  0
LINE
  5
EBF
330
1594
100
AcDbEntity
  8
01_VIEW_PV
  6
Continuous
 62
     7
100
AcDbLine
 10
-785.0000000000002
 20
-616.9189076403332
 30
0.0
 11
-775.0000000000002
 21
-616.9189076403332
 31
0.0
  0
LINE
  5
EC0
330
1594
100
AcDbEntity
  8
CENTER
100
AcDbLine
 10
-851.3405151367189
 20
-466.9189076403332
 30
0.0
 11
-779.9320678710939
 21
-466.9189076403332
 31
0.0
  0
LINE
  5
EC1
330
1594
100
AcDbEntity
  8
01_VIEW_PV
  6
Continuous
 62
     7
100
AcDbLine
 10
-826.0000000000001
 20
-482.9189076403332
 30
0.0
 11
-804.0000000000002
 21
-482.9189076403332
 31
0.0
  0
CIRCLE
  5
EC2
330
1594
100
AcDbEntity
  8
01_VIEW_PV
  6
Continuous
 62
     7
100
AcDbCircle
 10
-815.0000000000002
 20
-466.9189076403332
 30
0.0
 40
16.0
  0
ARC
  5
EC3
330
1594
100
AcDbEntity
  8
01_VIEW_PV
  6
Continuous
 62
     7
100
AcDbCircle
 10
-815.0000000000002
 20
-466.9189076403332
 30
0.0
 40
30.0
100
AcDbArc
 50
300.0000046506381
 51
240.0000087182045
  0
LINE
  5
EC4
330
1594
100
AcDbEntity
  8
CENTER
100
AcDbLine
 10
-815.0000000000002
 20
-427.906395433302
 30
0.0
 11
-815.0000000000002
 21
-504.6442112902355
 31
0.0
  0
LINE
  5
EC5
330
1594
100
AcDbEntity
  8
01_VIEW_PV
  6
Continuous
 62
     7
100
AcDbLine
 10
-892.0000000000001
 20
-526.9189076403332
 30
0.0
 11
-855.0000000000002
 21
-526.9189076403332
 31
0.0
  0
LINE
  5
EC6
330
1594
100
AcDbEntity
  8
01_VIEW_PV
  6
Continuous
 62
     7
100
AcDbLine
 10
-893.0000000000003
 20
-527.9188694933606
 30
0.0
 11
-892.0000000000001
 21
-526.9188923815441
 31
0.0
  0
LINE
  5
EC7
330
1594
100
AcDbEntity
  8
01_VIEW_PV
  6
Continuous
 62
     7
100
AcDbLine
 10
-830.0000000000002
 20
-486.9189076403332
 30
0.0
 11
-830.0000000000002
 21
-493.9189076403332
 31
0.0
  0
LINE
  5
EC8
330
1594
100
AcDbEntity
  8
01_VIEW_PV
  6
Continuous
 62
     7
100
AcDbLine
 10
-845.0000610351564
 20
-511.9188542345715
 30
0.0
 11
-834.6077880859377
 21
-493.9189152697277
 31
0.0
  0
ARC
  5
EC9
330
1594
100
AcDbEntity
  8
01_VIEW_PV
  6
Continuous
 62
     7
100
AcDbCircle
 10
-853.0000000000002
 20
-513.9189076403332
 30
0.0
 40
2.0
100
AcDbArc
 50
90.00000326932669
 51
180.0000065386534
  0
LINE
  5
ECA
330
1594
100
AcDbEntity
  8
01_VIEW_PV
  6
Continuous
 62
     7
100
AcDbLine
 10
-853.0000000000002
 20
-511.9189076403332
 30
0.0
 11
-845.0000000000002
 21
-511.9189076403332
 31
0.0
  0
ARC
  5
ECB
330
1594
100
AcDbEntity
  8
01_VIEW_PV
  6
Continuous
 62
     7
100
AcDbCircle
 10
-826.0000000000001
 20
-486.9189076403332
 30
0.0
 40
4.0
100
AcDbArc
 50
90.00000326932669
 51
180.0000065386534
  0
LINE
  5
ECC
330
1594
100
AcDbEntity
  8
01_VIEW_PV
  6
Continuous
 62
     7
100
AcDbLine
 10
-800.0000000000001
 20
-486.9189076403332
 30
0.0
 11
-800.0000000000001
 21
-493.9189076403332
 31
0.0
  0
ARC
  5
ECD
330
1594
100
AcDbEntity
  8
01_VIEW_PV
  6
Continuous
 62
     7
100
AcDbCircle
 10
-804.0000000000002
 20
-486.9189076403332
 30
0.0
 40
4.0
100
AcDbArc
 50
0.0
 51
90.00000326932669
  0
LINE
  5
ECE
330
1594
100
AcDbEntity
  8
01_VIEW_PV
  6
Continuous
 62
     7
100
AcDbLine
 10
-845.0000000000002
 20
-731.9189076403331
 30
0.0
 11
-742.4601343118602
 21
-731.9189076403331
 31
0.0
  0
LINE
  5
ECF
330
1594
100
AcDbEntity
  8
01_VIEW_PV
  6
Continuous
 62
     7
100
AcDbLine
 10
-845.0000000000002
 20
-716.9189076403331
 30
0.0
 11
-747.4344905480245
 21
-716.9189076403331
 31
0.0
  0
LINE
  5
ED1
330
1594
100
AcDbEntity
  8
01_VIEW_PV
  6
Continuous
 62
     7
100
AcDbLine
 10
-820.9999542238367
 20
-712.9189076403331
 30
0.0
 11
-769.0000076293801
 21
-712.9189076403332
 31
0.0
  0
LINE
  5
ED2
330
1594
100
AcDbEntity
  8
01_VIEW_PV
  6
Continuous
100
AcDbLine
 10
-834.6077880859377
 20
-493.9189152697277
 30
0.0
 11
-769.6249722973777
 21
-493.9189152697277
 31
0.0
  0
LINE
  5
ED3
330
1594
100
AcDbEntity
  8
01_VIEW_PV
  6
Continuous
100
AcDbLine
 10
-845.0000000000002
 20
-681.9189076403331
 30
0.0
 11
-756.540136096958
 21
-681.9189076403331
 31
0.0
  0
LWPOLYLINE
  5
ED9
330
1594
100
AcDbEntity
  8
01_VIEW_PV
  6
Continuous
100
AcDbPolyline
 90
       14
 70
   128
 43
0.0
 10
769.6249722973777
 20
-493.9189152697277
 10
751.9673745932982
 20
-519.5428505280611
 10
744.8375803151043
 20
-533.7978219943449
 10
740.0443133886743
 20
-548.9745590951848
 10
738.7314797285439
 20
-564.3873008877077
 10
741.5193049781459
 20
-579.4934164803387
 10
751.4261160530913
 20
-609.6098664343113
 10
755.1894937943485
 20
-624.9988071102897
 10
757.6572834667789
 20
-640.5134348296057
 10
758.6483587350921
 20
-656.0435206456592
 10
757.9819185510806
 20
-671.4789175741112
 10
755.6312154258797
 20
-686.7482953520195
 10
751.9693040710164
 20
-701.8810614773396
 10
742.4601343118521
 20
-731.9189076403331
210
0.0
220
0.0
230
-1.0
  0
LINE
  5
F23
330
1594
100
AcDbEntity
  8
01_VIEW_PV
  6
Continuous
100
AcDbLine
 10
-386.8664356981898
 20
-664.4595413941264
 30
0.0
 11
-386.8664356981897
 21
-403.4634932849503
 31
0.0
  0
DIMENSION
  5
F4D
330
1594
100
AcDbEntity
  8
DIM
  6
Continuous
100
AcDbDimension
  2
*D8
 10
-893.0000000000003
 20
-690.7434803653077
 30
0.0
 11
-926.5
 21
-690.7434803653077
 31
0.0
 71
     5
 42
-1.0
 73
     0
 74
     0
 75
     0
  3
STANDARD
100
AcDbAlignedDimension
 13
-960.0
 23
-653.1816610573819
 33
0.0
 14
-893.0000000000003
 24
-675.9189076403331
 34
0.0
100
AcDbRotatedDimension
1001
ACAD
1000
DSTYLE
1002
{
1070
   172
1070
     1
1070
   144
1040
0.03937
1070
   147
1040
0.5
1070
   271
1070
     2
1070
   178
1070
     1
1070
    41
1040
3.0
1070
   171
1070
     0
1070
   170
1070
     1
1002
}
  0
DIMENSION
  5
F73
330
1594
100
AcDbEntity
  8
DIM
  6
Continuous
100
AcDbDimension
  2
*D9
 10
-893.0000000000003
 20
-709.1753311538332
 30
0.0
 11
-961.5000000000001
 21
-709.1753311538332
 31
0.0
  1
5.40 [137]
 71
     5
 42
-1.0
 73
     0
 74
     0
 75
     0
  3
STANDARD
100
AcDbAlignedDimension
 13
-1030.0
 23
-622.066161057382
 33
0.0
 14
-893.0000000000003
 24
-675.9189076403331
 34
0.0
100
AcDbRotatedDimension
1001
ACAD
1000
DSTYLE
1002
{
1070
   172
1070
     1
1070
   144
1040
0.03937
1070
   147
1040
0.5
1070
   271
1070
     2
1070
   178
1070
     1
1070
    41
1040
3.0
1070
   171
1070
     0
1070
   170
1070
     1
1002
}
  0
DIMENSION
  5
F81
330
1594
100
AcDbEntity
  8
DIM
  6
Continuous
100
AcDbDimension
  2
*D10
 10
-673.0
 20
-172.8292328135694
 30
0.0
 11
-759.0
 21
-172.8292328135694
 31
0.0
 71
     5
 42
-1.0
 73
     0
 74
     0
 75
     0
  3
STANDARD
100
AcDbAlignedDimension
 13
-845.0
 23
-130.0
 33
0.0
 14
-673.0
 24
-130.0
 34
0.0
100
AcDbRotatedDimension
1001
ACAD
1000
DSTYLE
1002
{
1070
   172
1070
     1
1070
   144
1040
0.03937
1070
   147
1040
0.5
1070
   271
1070
     2
1070
   178
1070
     1
1070
    41
1040
3.0
1070
   171
1070
     0
1070
   170
1070
     1
1002
}
  0
DIMENSION
  5
F8F
330
1594
100
AcDbEntity
  8
DIM
  6
Continuous
100
AcDbDimension
  2
*D11
 10
-663.0
 20
-173.0092328135694
 30
0.0
 11
-638.2035899494332
 21
-173.0092328135694
 31
0.0
  1
\S.3953^ .3937; [10\H2;\S+0.04^ +0;\H4.17;]
 71
     5
 42
-1.0
 73
     0
 74
     0
 75
     0
  3
STANDARD
100
AcDbAlignedDimension
 13
-673.0
 23
-130.0
 33
0.0
 14
-663.0
 24
-130.0
 34
0.0
100
AcDbRotatedDimension
1001
ACAD
1000
DSTYLE
1002
{
1070
   172
1070
     1
1070
   144
1040
0.03937
1070
   147
1040
0.5
1070
   271
1070
     2
1070
   178
1070
     1
1070
    41
1040
3.0
1070
   171
1070
     0
1070
   170
1070
     1
1002
}
  0
DIMENSION
  5
F9D
330
1594
100
AcDbEntity
  8
DIM
  6
Continuous
100
AcDbDimension
  2
*D12
 10
-535.0
 20
-198.8562756856727
 30
0.0
 11
-665.0
 21
-198.8562756856727
 31
0.0
 71
     5
 42
-1.0
 73
     0
 74
     0
 75
     0
  3
STANDARD
100
AcDbAlignedDimension
 13
-795.0
 23
-135.7441253662109
 33
0.0
 14
-535.0
 24
-135.7441253662109
 34
0.0
100
AcDbRotatedDimension
1001
ACAD
1000
DSTYLE
1002
{
1070
   172
1070
     1
1070
   144
1040
0.03937
1070
   147
1040
0.5
1070
   271
1070
     2
1070
   178
1070
     1
1070
    41
1040
3.0
1070
   171
1070
     0
1070
   170
1070
     1
1002
}
  0
DIMENSION
  5
FAB
330
1594
100
AcDbEntity
  8
DIM
  6
Continuous
100
AcDbDimension
  2
*D13
 10
-795.0
 20
-199.0362756856727
 30
0.0
 11
-820.0
 21
-199.0362756856727
 31
0.0
 71
     5
 42
-1.0
 73
     0
 74
     0
 75
     0
  3
STANDARD
100
AcDbAlignedDimension
 13
-845.0
 23
-130.0625
 33
0.0
 14
-795.0
 24
-135.8066253662109
 34
0.0
100
AcDbRotatedDimension
1001
ACAD
1000
DSTYLE
1002
{
1070
   172
1070
     1
1070
   144
1040
0.03937
1070
   147
1040
0.5
1070
   271
1070
     2
1070
   178
1070
     1
1070
    41
1040
3.0
1070
   171
1070
     0
1070
   170
1070
     1
1002
}
  0
DIMENSION
  5
FB9
330
1594
100
AcDbEntity
  8
DIM
  6
Continuous
100
AcDbDimension
  2
*D14
 10
-495.0
 20
-223.76787652035
 30
0.0
 11
-670.0
 21
-223.76787652035
 31
0.0
 71
     5
 42
-1.0
 73
     0
 74
     0
 75
     0
  3
STANDARD
100
AcDbAlignedDimension
 13
-845.0
 23
-130.125
 33
0.0
 14
-495.0
 24
-130.0
 34
0.0
100
AcDbRotatedDimension
1001
ACAD
1000
DSTYLE
1002
{
1070
   172
1070
     1
1070
   144
1040
0.03937
1070
   147
1040
0.5
1070
   271
1070
     2
1070
   178
1070
     1
1070
    41
1040
3.0
1070
   171
1070
     0
1070
   170
1070
     1
1002
}
  0
DIMENSION
  5
FC7
330
1594
100
AcDbEntity
  8
DIM
  6
Continuous
100
AcDbDimension
  2
*D15
 10
-958.0
 20
-223.94787652035
 30
0.0
 11
-901.5
 21
-223.94787652035
 31
0.0
 71
     5
 42
-1.0
 73
     0
 74
     0
 75
     0
  3
STANDARD
100
AcDbAlignedDimension
 13
-845.0
 23
-130.0
 33
0.0
 14
-958.0
 24
-45.49999999999999
 34
0.0
100
AcDbRotatedDimension
1001
ACAD
1000
DSTYLE
1002
{
1070
   172
1070
     1
1070
   144
1040
0.03937
1070
   147
1040
0.5
1070
   271
1070
     2
1070
   178
1070
     1
1070
    41
1040
3.0
1070
   171
1070
     0
1070
   170
1070
     1
1002
}
  0
DIMENSION
  5
FD5
330
1594
100
AcDbEntity
  8
DIM
  6
Continuous
100
AcDbDimension
  2
*D16
 10
-893.0
 20
-199.0362756856727
 30
0.0
 11
-869.0
 21
-199.0362756856727
 31
0.0
 71
     5
 42
-1.0
 73
     0
 74
     0
 75
     0
  3
STANDARD
100
AcDbAlignedDimension
 13
-845.0
 23
-130.0
 33
0.0
 14
-893.0
 24
-74.00003814697265
 34
0.0
100
AcDbRotatedDimension
1001
ACAD
1000
DSTYLE
1002
{
1070
   172
1070
     1
1070
   144
1040
0.03937
1070
   147
1040
0.5
1070
   271
1070
     2
1070
   178
1070
     1
1070
    41
1040
3.0
1070
   171
1070
     0
1070
   170
1070
     1
1002
}
  0
DIMENSION
  5
FE3
330
1594
100
AcDbEntity
  8
DIM
  6
Continuous
100
AcDbDimension
  2
*D17
 10
-958.0
 20
-199.2162756856727
 30
0.0
 11
-925.5
 21
-199.2162756856727
 31
0.0
 71
     5
 42
-1.0
 73
     0
 74
     0
 75
     0
  3
STANDARD
100
AcDbAlignedDimension
 13
-893.0
 23
-74.06253814697265
 33
0.0
 14
-958.0
 24
-45.5625
 34
0.0
100
AcDbRotatedDimension
1001
ACAD
1000
DSTYLE
1002
{
1070
   172
1070
     1
1070
   144
1040
0.03937
1070
   147
1040
0.5
1070
   271
1070
     2
1070
   178
1070
     1
1070
    41
1040
3.0
1070
   171
1070
     0
1070
   170
1070
     1
1002
}
  0
DIMENSION
  5
FF1
330
1594
100
AcDbEntity
  8
DIM
  6
Continuous
100
AcDbDimension
  2
*D18
 10
-958.0
 20
-223.44787652035
 30
0.0
 11
-1009.575682524441
 21
-223.44787652035
 31
0.0
 70
   128
  1
.98 [25]
 71
     5
 42
-1.0
 73
     0
 74
     0
 75
     0
  3
STANDARD
100
AcDbAlignedDimension
 13
-983.0
 23
-17.5
 33
0.0
 14
-958.0
 24
-45.49999999999999
 34
0.0
100
AcDbRotatedDimension
1001
ACAD
1000
DSTYLE
1002
{
1070
   172
1070
     1
1070
   144
1040
0.03937
1070
   147
1040
0.5
1070
   271
1070
     2
1070
   178
1070
     1
1070
    41
1040
3.0
1070
   171
1070
     0
1070
   170
1070
     1
1002
}
  0
DIMENSION
  5
1017
330
1594
100
AcDbEntity
  8
DIM
  6
Continuous
100
AcDbDimension
  2
*D19
 10
-0.0000000000000106
 20
-223.76787652035
 30
0.0
 11
-247.5
 21
-223.76787652035
 31
0.0
 71
     5
 42
-1.0
 73
     0
 74
     0
 75
     0
  3
STANDARD
100
AcDbAlignedDimension
 13
-495.0
 23
-130.0625
 33
0.0
 14
0.0
 24
-50.00000381469726
 34
0.0
100
AcDbRotatedDimension
1001
ACAD
1000
DSTYLE
1002
{
1070
   172
1070
     1
1070
   144
1040
0.03937
1070
   147
1040
0.5
1070
   271
1070
     2
1070
   178
1070
     1
1070
    41
1040
3.0
1070
   171
1070
     0
1070
   170
1070
     1
1002
}
  0
DIMENSION
  5
1025
330
1594
100
AcDbEntity
  8
DIM
  6
Continuous
100
AcDbDimension
  2
*D20
 10
-0.0000000000000129
 20
-260.9372074832318
 30
0.0
 11
-491.5
 21
-260.9372074832318
 31
0.0
 71
     5
 42
-1.0
 73
     0
 74
     0
 75
     0
  3
STANDARD
100
AcDbAlignedDimension
 13
-983.0
 23
-17.5
 33
0.0
 14
0.0
 24
-50.06250381469726
 34
0.0
100
AcDbRotatedDimension
1001
ACAD
1000
DSTYLE
1002
{
1070
   172
1070
     1
1070
   144
1040
0.03937
1070
   147
1040
0.5
1070
   271
1070
     2
1070
   178
1070
     1
1070
    41
1040
3.0
1070
   171
1070
     0
1070
   170
1070
     1
1002
}
  0
DIMENSION
  5
1033
330
1594
100
AcDbEntity
  8
DIM
  6
Continuous
100
AcDbDimension
  2
*D21
 10
81.44847637313253
 20
267.0
 30
0.0
 11
81.44847637313253
 21
133.5
 31
0.0
 71
     5
 42
-1.0
 73
     0
 74
     0
 75
     0
  3
STANDARD
100
AcDbAlignedDimension
 13
17.9166374206543
 23
0.0
 33
0.0
 14
17.32132339477539
 24
267.0
 34
0.0
 50
90.0
100
AcDbRotatedDimension
1001
ACAD
1000
DSTYLE
1002
{
1070
   172
1070
     1
1070
   144
1040
0.03937
1070
   147
1040
0.5
1070
   271
1070
     2
1070
   178
1070
     1
1070
    41
1040
3.0
1070
   171
1070
     0
1070
   170
1070
     1
1002
}
  0
DIMENSION
  5
1041
330
1594
100
AcDbEntity
  8
DIM
  6
Continuous
100
AcDbDimension
  2
*D22
 10
-115.0
 20
530.0094031838662
 30
0.0
 11
-57.49999999999999
 21
530.0094031838662
 31
0.0
 71
     5
 42
-1.0
 73
     0
 74
     0
 75
     0
  3
STANDARD
100
AcDbAlignedDimension
 13
0.0
 23
320.0
 33
0.0
 14
-115.0
 24
395.0
 34
0.0
100
AcDbRotatedDimension
1001
ACAD
1000
DSTYLE
1002
{
1070
   172
1070
     1
1070
   144
1040
0.03937
1070
   147
1040
0.5
1070
   271
1070
     2
1070
   178
1070
     1
1070
    41
1040
3.0
1070
   171
1070
     0
1070
   170
1070
     1
1002
}
  0
DIMENSION
  5
104F
330
1594
100
AcDbEntity
  8
DIM
  6
Continuous
100
AcDbDimension
  2
*D23
 10
-419.7999877929687
 20
530.0094031838662
 30
0.0
 11
-267.3999938964844
 21
530.0094031838662
 31
0.0
 71
     5
 42
-1.0
 73
     0
 74
     0
 75
     0
  3
STANDARD
100
AcDbAlignedDimension
 13
-115.0
 23
395.0
 33
0.0
 14
-419.7999877929687
 24
362.4400024414062
 34
0.0
100
AcDbRotatedDimension
1001
ACAD
1000
DSTYLE
1002
{
1070
   172
1070
     1
1070
   144
1040
0.03937
1070
   147
1040
0.5
1070
   271
1070
     2
1070
   178
1070
     1
1070
    41
1040
3.0
1070
   171
1070
     0
1070
   170
1070
     1
1002
}
  0
DIMENSION
  5
105D
330
1594
100
AcDbEntity
  8
DIM
  6
Continuous
100
AcDbDimension
  2
*D24
 10
-457.8999938964844
 20
565.8127070477785
 30
0.0
 11
-286.4499969482422
 21
565.8127070477785
 31
0.0
 71
     5
 42
-1.0
 73
     0
 74
     0
 75
     0
  3
STANDARD
100
AcDbAlignedDimension
 13
-115.0
 23
395.0625
 33
0.0
 14
-457.8999938964844
 24
362.4400024414062
 34
0.0
100
AcDbRotatedDimension
1001
ACAD
1000
DSTYLE
1002
{
1070
   172
1070
     1
1070
   144
1040
0.03937
1070
   147
1040
0.5
1070
   271
1070
     2
1070
   178
1070
     1
1070
    41
1040
3.0
1070
   171
1070
     0
1070
   170
1070
     1
1002
}
  0
LINE
  5
106C
330
1594
100
AcDbEntity
  8
DASH
100
AcDbLine
 10
-825.0
 20
937.5
 30
0.0
 11
-837.3158052988863
 21
918.0
 31
0.0
  0
LINE
  5
106D
330
1594
100
AcDbEntity
  8
DASH
100
AcDbLine
 10
-825.0
 20
937.5
 30
0.0
 11
-765.0
 21
937.5
 31
0.0
  0
ARC
  5
106E
330
1594
100
AcDbEntity
  8
DASH
100
AcDbCircle
 10
-795.0
 20
920.0
 30
0.0
 40
9.0
100
AcDbArc
 50
3.184738536720389
 51
176.8152614632796
  0
LINE
  5
106F
330
1594
100
AcDbEntity
  8
CENTER
100
AcDbLine
 10
-812.9434814453125
 20
920.0
 30
0.0
 11
-777.7227172851562
 21
920.0
 31
0.0
  0
LINE
  5
1070
330
1594
100
AcDbEntity
  8
CENTER
100
AcDbLine
 10
-795.0
 20
900.3112182617186
 30
0.0
 11
-795.0
 21
935.744140625
 31
0.0
  0
LINE
  5
1071
330
1594
100
AcDbEntity
  8
DASH
100
AcDbLine
 10
-575.0
 20
915.0
 30
0.0
 11
-565.0
 21
937.4999389648436
 31
0.0
  0
LINE
  5
1072
330
1594
100
AcDbEntity
  8
DASH
100
AcDbLine
 10
-565.0
 20
937.5
 30
0.0
 11
-505.0
 21
937.5
 31
0.0
  0
LINE
  5
1073
330
1594
100
AcDbEntity
  8
DASH
100
AcDbLine
 10
-505.0
 20
937.5
 30
0.0
 11
-492.7777709960937
 21
910.0
 31
0.0
  0
CIRCLE
  5
1074
330
1594
100
AcDbEntity
  8
DASH
100
AcDbCircle
 10
-535.0
 20
920.0
 30
0.0
 40
9.0
  0
LINE
  5
1075
330
1594
100
AcDbEntity
  8
CENTER
100
AcDbLine
 10
-535.0
 20
900.3112182617186
 30
0.0
 11
-535.0
 21
935.744140625
 31
0.0
  0
LINE
  5
1076
330
1594
100
AcDbEntity
  8
CENTER
100
AcDbLine
 10
-555.0028076171875
 20
920.0
 30
0.0
 11
-512.5305786132812
 21
920.0
 31
0.0
  0
LINE
  5
1077
330
1594
100
AcDbEntity
  8
DASH
100
AcDbLine
 10
-765.0
 20
937.5
 30
0.0
 11
-757.4444444444444
 21
920.5
 31
0.0
  0
DIMENSION
  5
1085
330
1594
100
AcDbEntity
  8
DIM
  6
Continuous
100
AcDbDimension
  2
*D25
 10
-573.2973697634606
 20
151.5599975585937
 30
0.0
 11
-573.2973697634606
 21
267.0000000000001
 31
0.0
  1
<>DIA [%%c230.9]
 71
     5
 42
-1.0
 73
     0
 74
     0
 75
     0
  3
STANDARD
100
AcDbAlignedDimension
 13
-463.299988934179
 23
382.4400024414062
 33
0.0
 14
-463.299988934179
 24
151.5599975585937
 34
0.0
 50
90.0
100
AcDbRotatedDimension
1001
ACAD
1000
DSTYLE
1002
{
1070
   172
1070
     1
1070
   144
1040
0.03937
1070
   147
1040
0.5
1070
   271
1070
     2
1070
   178
1070
     1
1070
    41
1040
3.0
1070
   171
1070
     0
1002
}
  0
DIMENSION
  5
10A1
330
1594
100
AcDbEntity
  8
DIM
  6
Continuous
100
AcDbDimension
  2
*D26
 10
404.0589599609375
 20
564.3859362932907
 30
0.0
 11
529.0589599609375
 21
564.3859362932907
 31
0.0
 71
     5
 42
-1.0
 73
     0
 74
     0
 75
     0
  3
STANDARD
100
AcDbAlignedDimension
 13
654.0589599609375
 23
320.0000305175781
 33
0.0
 14
404.0589599609375
 24
320.0
 34
0.0
100
AcDbRotatedDimension
1001
ACAD
1000
DSTYLE
1002
{
1070
   172
1070
     1
1070
   144
1040
0.03937
1070
   147
1040
0.5
1070
   271
1070
     2
1070
   178
1070
     1
1070
    41
1040
3.0
1070
   171
1070
     0
1070
   170
1070
     1
1002
}
  0
DIMENSION
  5
10AF
330
1594
100
AcDbEntity
  8
DIM
  6
Continuous
100
AcDbDimension
  2
*D27
 10
534.0589599609375
 20
-172.1527165035186
 30
0.0
 11
558.8553700115043
 21
-172.1527165035186
 31
0.0
  1
\S.3953^ .3937; [10\H2;\S+0.04^ +0;\H4.17;]
 71
     5
 42
-1.0
 73
     0
 74
     0
 75
     0
  3
STANDARD
100
AcDbAlignedDimension
 13
524.0589599609375
 23
-130.0
 33
0.0
 14
534.0589599609375
 24
-130.0
 34
0.0
100
AcDbRotatedDimension
1001
ACAD
1000
DSTYLE
1002
{
1070
   172
1070
     1
1070
   144
1040
0.03937
1070
   147
1040
0.5
1070
   271
1070
     2
1070
   178
1070
     1
1070
    41
1040
3.0
1070
   171
1070
     0
1070
   170
1070
     1
1002
}
  0
DIMENSION
  5
10CB
330
1594
100
AcDbEntity
  8
DIM
  6
Continuous
100
AcDbDimension
  2
*D28
 10
391.5589599609375
 20
-221.4198289524202
 30
0.0
 11
529.0902099609374
 21
-221.4198289524202
 31
0.0
 71
     5
 42
-1.0
 73
     0
 74
     0
 75
     0
  3
STANDARD
100
AcDbAlignedDimension
 13
666.6214599609375
 23
-130.0
 33
0.0
 14
391.5589599609375
 24
-130.0
 34
0.0
100
AcDbRotatedDimension
1001
ACAD
1000
DSTYLE
1002
{
1070
   172
1070
     1
1070
   144
1040
0.03937
1070
   147
1040
0.5
1070
   271
1070
     2
1070
   178
1070
     1
1070
    41
1040
3.0
1070
   171
1070
     0
1070
   170
1070
     1
1002
}
  0
DIMENSION
  5
10DB
330
1594
100
AcDbEntity
  8
DIM
  6
Continuous
100
AcDbDimension
  2
*D29
 10
477.4975553752642
 20
-124.0
 30
0.0
 11
491.9116509732557
 21
-105.2668949672452
 31
0.0
 70
   128
  1
.24 [6]
 71
     5
 42
-1.0
 73
     0
 74
     0
 75
     0
  3
STANDARD
100
AcDbAlignedDimension
 13
524.0589599609375
 23
-130.0625
 33
0.0
 14
524.0589599609375
 24
-124.0
 34
0.0
 50
90.0
100
AcDbRotatedDimension
1001
ACAD
1000
DSTYLE
1002
{
1070
   172
1070
     1
1070
   144
1040
0.03937
1070
   147
1040
0.5
1070
   271
1070
     2
1070
   178
1070
     1
1070
    41
1040
3.0
1070
   171
1070
     0
1070
   170
1070
     1
1002
}
  0
LINE
  5
10EA
330
1594
100
AcDbEntity
  8
PHANTOM
100
AcDbLine
 10
-1160.0
 20
25.0
 30
0.0
 11
-1160.0
 21
-25.0
 31
0.0
  0
LINE
  5
10EB
330
1594
100
AcDbEntity
  8
PHANTOM
100
AcDbLine
 10
-1163.0
 20
29.0
 30
0.0
 11
-1163.0
 21
-29.0
 31
0.0
  0
LINE
  5
10EC
330
1594
100
AcDbEntity
  8
PHANTOM
100
AcDbLine
 10
-1156.0
 20
47.5
 30
0.0
 11
-1156.0
 21
-47.5
 31
0.0
  0
LINE
  5
10ED
330
1594
100
AcDbEntity
  8
PHANTOM
100
AcDbLine
 10
-1158.0
 20
45.49999999999999
 30
0.0
 11
-1158.0
 21
-45.49999999999999
 31
0.0
  0
LINE
  5
10EE
330
1594
100
AcDbEntity
  8
PHANTOM
100
AcDbLine
 10
-1173.0
 20
29.0
 30
0.0
 11
-1173.0
 21
-29.0
 31
0.0
  0
LINE
  5
10EF
330
1594
100
AcDbEntity
  8
PHANTOM
100
AcDbLine
 10
-1173.0
 20
-29.0
 30
0.0
 11
-1163.0
 21
-29.0
 31
0.0
  0
LINE
  5
10F0
330
1594
100
AcDbEntity
  8
PHANTOM
100
AcDbLine
 10
-1160.0
 20
-25.0
 30
0.0
 11
-1158.0
 21
-25.0
 31
0.0
  0
LINE
  5
10F1
330
1594
100
AcDbEntity
  8
PHANTOM
100
AcDbLine
 10
-1157.999938964843
 20
-45.49999999999999
 30
0.0
 11
-1155.999877929687
 21
-47.49997329711914
 31
0.0
  0
LINE
  5
10F2
330
1594
100
AcDbEntity
  8
PHANTOM
100
AcDbLine
 10
-1183.0
 20
17.5
 30
0.0
 11
-1183.0
 21
-17.5
 31
0.0
  0
LINE
  5
10F3
330
1594
100
AcDbEntity
  8
PHANTOM
100
AcDbLine
 10
-1183.0
 20
17.5
 30
0.0
 11
-1173.0
 21
17.5
 31
0.0
  0
LINE
  5
10F4
330
1594
100
AcDbEntity
  8
PHANTOM
100
AcDbLine
 10
-1183.0
 20
-17.5
 30
0.0
 11
-1173.0
 21
-17.5
 31
0.0
  0
LINE
  5
10F5
330
1594
100
AcDbEntity
  8
PHANTOM
100
AcDbLine
 10
-1163.0
 20
15.0
 30
0.0
 11
-1160.0
 21
15.0
 31
0.0
  0
LINE
  5
10F6
330
1594
100
AcDbEntity
  8
PHANTOM
100
AcDbLine
 10
-1163.0
 20
-15.0
 30
0.0
 11
-1160.0
 21
-15.0
 31
0.0
  0
LINE
  5
10F7
330
1594
100
AcDbEntity
  8
PHANTOM
100
AcDbLine
 10
-1173.0
 20
29.0
 30
0.0
 11
-1163.0
 21
29.0
 31
0.0
  0
LINE
  5
10F8
330
1594
100
AcDbEntity
  8
PHANTOM
100
AcDbLine
 10
-1158.0
 20
45.50001525878906
 30
0.0
 11
-1156.0
 21
47.50001907348632
 31
0.0
  0
LINE
  5
10F9
330
1594
100
AcDbEntity
  8
PHANTOM
100
AcDbLine
 10
-1160.0
 20
25.0
 30
0.0
 11
-1158.0
 21
25.0
 31
0.0
  0
LINE
  5
10FA
330
1594
100
AcDbEntity
  8
PHANTOM
100
AcDbLine
 10
-1155.999938964844
 20
-47.5
 30
0.0
 11
-1093.0
 21
-47.5
 31
0.0
  0
LINE
  5
10FB
330
1594
100
AcDbEntity
  8
PHANTOM
100
AcDbLine
 10
-1156.0
 20
47.5
 30
0.0
 11
-1093.0
 21
47.5
 31
0.0
  0
DIMENSION
  5
1109
330
1594
100
AcDbEntity
  8
DIM
  6
Continuous
100
AcDbDimension
  2
*D30
 10
-983.0
 20
-260.9372074832318
 30
0.0
 11
-1083.0
 21
-260.9372074832318
 31
0.0
  1
STROKE MAX.<>
 71
     5
 42
-1.0
 73
     0
 74
     0
 75
     0
  3
STANDARD
100
AcDbAlignedDimension
 13
-1183.0
 23
-17.5
 33
0.0
 14
-983.0
 24
-17.5625
 34
0.0
100
AcDbRotatedDimension
1001
ACAD
1000
DSTYLE
1002
{
1070
   172
1070
     1
1070
   144
1040
0.03937
1070
   147
1040
0.5
1070
   271
1070
     2
1070
   178
1070
     1
1070
    41
1040
3.0
1070
   171
1070
     0
1070
   170
1070
     1
1002
}
  0
DIMENSION
  5
1123
330
1594
100
AcDbEntity
  8
DIM
  6
Continuous
100
AcDbDimension
  2
*D31
 10
81.62847637313252
 20
-0.0000000000000078
 30
0.0
 11
81.62847637313252
 21
-65.06250000000003
 31
0.0
  1
\S5.1201^ 5.1161; [130%%p0.05]
 71
     5
 42
-1.0
 73
     0
 74
     0
 75
     0
  3
STANDARD
100
AcDbAlignedDimension
 13
-495.0
 23
-130.125
 33
0.0
 14
17.9166374206543
 24
0.0
 34
0.0
 50
90.0
100
AcDbRotatedDimension
1001
ACAD
1000
DSTYLE
1002
{
1070
   172
1070
     1
1070
   144
1040
0.03937
1070
   147
1040
0.5
1070
   271
1070
     2
1070
   178
1070
     1
1070
    41
1040
3.0
1070
   171
1070
     0
1070
   170
1070
     1
1002
}
  0
DIMENSION
  5
1157
330
1594
100
AcDbEntity
  8
DIM
  6
Continuous
100
AcDbDimension
  2
*D32
 10
-693.7223606338744
 20
-124.0
 30
0.0
 11
-708.1364562318658
 21
-151.2249841755738
 31
0.0
 70
   128
  1
.24 [6]
 71
     5
 42
-1.0
 73
     0
 74
     0
 75
     0
  3
STANDARD
100
AcDbAlignedDimension
 13
-673.0
 23
-130.0625
 33
0.0
 14
-673.0
 24
-124.0
 34
0.0
 50
90.0
100
AcDbRotatedDimension
1001
ACAD
1000
DSTYLE
1002
{
1070
   172
1070
     1
1070
   144
1040
0.03937
1070
   147
1040
0.5
1070
   271
1070
     2
1070
   178
1070
     1
1070
    41
1040
3.0
1070
   171
1070
     0
1070
   170
1070
     1
1002
}
  0
DIMENSION
  5
11C9
330
1594
100
AcDbEntity
  8
DIM
  6
Continuous
100
AcDbDimension
  2
*D33
 10
-409.0
 20
1060.159758341066
 30
0.0
 11
-647.0
 21
1060.159758341066
 31
0.0
 12
0.0
 22
3.0
 32
0.0
 71
     5
 42
-1.0
 73
     0
 74
     0
 75
     0
  3
STANDARD
100
AcDbAlignedDimension
 13
-885.0
 23
973.0
 33
0.0
 14
-409.0
 24
955.4999999999999
 34
0.0
100
AcDbRotatedDimension
1001
ACAD
1000
DSTYLE
1002
{
1070
   172
1070
     1
1070
   144
1040
0.03937
1070
   147
1040
0.5
1070
   271
1070
     2
1070
   178
1070
     1
1070
    41
1040
3.0
1070
   171
1070
     0
1070
   170
1070
     1
1002
}
  0
DIMENSION
  5
11D7
330
1594
100
AcDbEntity
  8
DIM
  6
Continuous
100
AcDbDimension
  2
*D34
 10
-409.0
 20
1031.88926762936
 30
0.0
 11
-602.6889470558353
 21
1031.88926762936
 31
0.0
 12
0.0
 22
3.0
 32
0.0
 70
   128
  1
REGULATED CUTTING STROKE MAX.<>
 71
     5
 42
-1.0
 73
     0
 74
     0
 75
     0
  3
STANDARD
100
AcDbAlignedDimension
 13
-509.1459960937499
 23
970.5
 33
0.0
 14
-409.0
 24
955.4999999999999
 34
0.0
100
AcDbRotatedDimension
1001
ACAD
1000
DSTYLE
1002
{
1070
   172
1070
     1
1070
   144
1040
0.03937
1070
   147
1040
0.5
1070
   271
1070
     2
1070
   178
1070
     1
1070
    41
1040
3.0
1070
   171
1070
     0
1070
   170
1070
     1
1002
}
  0
TEXT
  5
1209
330
1594
100
AcDbEntity
  8
DIM
 62
     0
100
AcDbText
 10
211.5107265869065
 20
889.6307751846523
 30
0.0
 40
20.83600068707465
  1
SELFEEDER <<NEWTRIC II>>
  7
ROMANS
 11
211.5107265869065
 21
882.6854416222941
 31
0.0
100
AcDbText
 73
     1
  0
TEXT
  5
120A
330
1594
100
AcDbEntity
  8
DIM
 62
     0
100
AcDbText
 10
211.5107265869065
 20
859.6307751846522
 30
0.0
 40
20.83600068707465
  1
TYPE ES7-4, ES7-6
  7
ROMANS
 11
211.5107265869065
 21
852.685441622294
 31
0.0
100
AcDbText
 73
     1
  0
TEXT
  5
120B
330
1594
100
AcDbEntity
  8
DIM
  6
Continuous
 62
     7
100
AcDbText
 10
213.386561237843
 20
749.1624254621024
 30
0.0
 40
15.0
  1
1.        THIS LINE SHOWS ES7-6 TYPE
100
AcDbText
  0
LINE
  5
120D
330
1594
100
AcDbEntity
  8
DIM
  6
PHANTOM
 62
     5
100
AcDbLine
 10
249.4144203696942
 20
751.2460126317496
 30
0.0
 11
343.8527029812144
 21
751.2460126317496
 31
0.0
  0
TEXT
  5
120F
330
1594
100
AcDbEntity
  8
DIM
  6
Continuous
 62
     7
100
AcDbText
 10
217.1392368520644
 20
775.3503974729497
 30
0.0
 40
15.0
  1
NOTE
100
AcDbText
  0
ARC
  5
1223
330
1594
100
AcDbEntity
  8
01_VIEW_PV
  6
Continuous
100
AcDbCircle
 10
-790.9999999999999
 20
800.0
 30
0.0
 40
6.0
100
AcDbArc
 50
270.0
 51
90.0
  0
ARC
  5
1224
330
1594
100
AcDbEntity
  8
01_VIEW_PV
  6
Continuous
100
AcDbCircle
 10
-839.0
 20
800.0
 30
0.0
 40
6.0
100
AcDbArc
 50
90.0
 51
270.0
  0
ARC
  5
1227
330
1594
100
AcDbEntity
  8
01_VIEW_PV
  6
Continuous
100
AcDbCircle
 10
-103.9999999999999
 20
800.0
 30
0.0
 40
6.0
100
AcDbArc
 50
90.0
 51
270.0
  0
ARC
  5
1228
330
1594
100
AcDbEntity
  8
01_VIEW_PV
  6
Continuous
100
AcDbCircle
 10
-55.99999999999988
 20
800.0
 30
0.0
 40
5.999999999999886
100
AcDbArc
 50
269.9999999999989
 51
90.00000000000108
  0
SOLID
  5
1240
330
1594
100
AcDbEntity
  8
DIM
  6
Continuous
100
AcDbTrace
 10
797.121070148678
 20
668.8203070343769
 30
0.0
 11
795.0
 21
671.0
 31
0.0
 12
796.2994902598987
 22
668.2502136329474
 32
0.0
 13
796.2994902598987
 23
668.2502136329474
 33
0.0
210
0.0
220
0.0
230
-1.0
1001
ACAD
1000
DSTYLE
1002
{
1070
   172
1070
     1
1070
   144
1040
0.03937
1070
   147
1040
0.5
1070
   271
1070
     2
1070
   178
1070
     1
1070
    41
1040
3.0
1070
   171
1070
     0
1070
   170
1070
     1
1002
}
  0
LWPOLYLINE
  5
1484
330
1594
100
AcDbEntity
  8
DIM
  6
Continuous
100
AcDbPolyline
 90
        3
 70
   128
 43
0.0
 10
-796.7102802042884
 20
668.5352603336621
 10
-840.9924695588141
 20
604.7187767301502
 10
-843.9924695588143
 20
604.7187767301502
1001
ACAD
1000
R13OBJECT
1002
{
1005
1240
1002
}
  0
TEXT
  5
1241
330
1594
100
AcDbEntity
  8
DIM
  6
Continuous
 62
     1
100
AcDbText
 10
-913.7473670806148
 20
602.9328338141152
 30
0.0
 40
4.167200137414932
  1
.71DIA [
100
AcDbText
  0
TEXT
  5
1489
330
1594
100
AcDbEntity
  8
DIM
  6
Continuous
 62
     1
100
AcDbText
 10
-887.5535376454351
 20
602.9328338141152
 30
0.0
 40
4.167200137414932
  1
%%c
100
AcDbText
1001
ACAD
1000
R13OBJECT
1002
{
1005
1241
1002
}
  0
TEXT
  5
148A
330
1594
100
AcDbEntity
  8
DIM
  6
Continuous
 62
     1
100
AcDbText
 10
-883.7832137115835
 20
602.9328338141152
 30
0.0
 40
4.167200137414932
  1
18] -4HOLE
100
AcDbText
1001
ACAD
1000
R13OBJECT
1002
{
1005
1241
1002
}
  0
LINE
  5
124E
330
1594
100
AcDbEntity
  8
01_VIEW_PV
  6
Continuous
 62
     7
100
AcDbLine
 10
-560.9999313354201
 20
-111.0
 30
0.0
 11
-508.9999008179439
 21
-111.0
 31
0.0
  0
DIMENSION
  5
129E
330
1594
100
AcDbEntity
  8
DIM
  6
Continuous
100
AcDbDimension
  2
*D35
 10
716.5589599609375
 20
-196.6231341389721
 30
0.0
 11
622.8089599609375
 21
-196.6231341389721
 31
0.0
 71
     5
 42
-1.0
 73
     0
 74
     0
 75
     0
  3
STANDARD
100
AcDbAlignedDimension
 13
529.0589599609375
 23
-145.4024658203125
 33
0.0
 14
716.5589599609375
 24
-108.0
 34
0.0
100
AcDbRotatedDimension
1001
ACAD
1000
DSTYLE
1002
{
1070
   172
1070
     1
1070
   144
1040
0.03937
1070
   147
1040
0.5
1070
   271
1070
     2
1070
   178
1070
     1
1070
    41
1040
3.0
1070
   171
1070
     1
1070
   170
1070
     1
1002
}
  0
LINE
  5
12AB
330
1594
100
AcDbEntity
  8
01_VIEW_PV
  6
Continuous
 62
     7
100
AcDbLine
 10
-885.0
 20
923.0
 30
0.0
 11
-870.0
 21
923.0
 31
0.0
  0
LINE
  5
12AC
330
1594
100
AcDbEntity
  8
DASH
100
AcDbLine
 10
-514.1460571289062
 20
925.5
 30
0.0
 11
-509.1459960937499
 21
925.5
 31
0.0
  0
DIMENSION
  5
12BA
330
1594
100
AcDbEntity
  8
DIM
  6
Continuous
100
AcDbDimension
  2
*D36
 10
-724.7928187187389
 20
800.0
 30
0.0
 11
-724.7928187187389
 21
874.0
 31
0.0
 71
     5
 42
-1.0
 73
     0
 74
     0
 75
     0
  3
STANDARD
100
AcDbAlignedDimension
 13
-685.0
 23
948.0
 33
0.0
 14
-784.9999999999998
 24
800.0
 34
0.0
 50
90.0
100
AcDbRotatedDimension
1001
ACAD
1000
DSTYLE
1002
{
1070
   172
1070
     1
1070
   144
1040
0.03937
1070
   147
1040
0.5
1070
   271
1070
     2
1070
   178
1070
     1
1070
    41
1040
3.0
1070
   171
1070
     0
1070
   170
1070
     1
1002
}
  0
DIMENSION
  5
12D4
330
1594
100
AcDbEntity
  8
DIM
  6
Continuous
100
AcDbDimension
  2
*D37
 10
-1030.182139471956
 20
680.0000000000001
 30
0.0
 11
-1030.182139471956
 21
800.0000000000001
 31
0.0
 71
     5
 42
-1.0
 73
     0
 74
     0
 75
     0
  3
STANDARD
100
AcDbAlignedDimension
 13
-812.9434814453125
 23
920.0
 33
0.0
 14
-812.9434814453125
 24
680.0
 34
0.0
 50
90.0
100
AcDbRotatedDimension
1001
ACAD
1000
DSTYLE
1002
{
1070
   172
1070
     1
1070
   144
1040
0.03937
1070
   147
1040
0.5
1070
   271
1070
     2
1070
   178
1070
     1
1070
    41
1040
3.0
1070
   171
1070
     0
1070
   170
1070
     1
1002
}
  0
LINE
  5
12D5
330
1594
100
AcDbEntity
  8
01_VIEW_PV
  6
Continuous
100
AcDbLine
 10
-809.9999389648438
 20
662.5
 30
0.0
 11
-809.9999389648438
 21
697.1428135463169
 31
0.0
  0
LINE
  5
12D6
330
1594
100
AcDbEntity
  8
01_VIEW_PV
  6
Continuous
100
AcDbLine
 10
-780.0
 20
662.5
 30
0.0
 11
-780.0
 21
690.0
 31
0.0
  0
LINE
  5
12D7
330
1594
100
AcDbEntity
  8
01_VIEW_PV
  6
Continuous
100
AcDbLine
 10
-550.0
 20
662.5
 30
0.0
 11
-550.0
 21
690.0
 31
0.0
  0
LINE
  5
12D8
330
1594
100
AcDbEntity
  8
01_VIEW_PV
  6
Continuous
100
AcDbLine
 10
-520.0000610351562
 20
662.5
 30
0.0
 11
-520.0000610351562
 21
690.0
 31
0.0
  0
LINE
  5
12D9
330
1594
100
AcDbEntity
  8
01_VIEW_PV
  6
Continuous
100
AcDbLine
 10
-815.9000244140624
 20
662.5
 30
0.0
 11
-815.9000244140624
 21
698.8285522460937
 31
0.0
  0
LINE
  5
12DA
330
1594
100
AcDbEntity
  8
01_VIEW_PV
  6
Continuous
100
AcDbLine
 10
-774.1000976562499
 20
662.5
 30
0.0
 11
-774.1000976562499
 21
690.0
 31
0.0
  0
LINE
  5
12DC
330
1594
100
AcDbEntity
  8
01_VIEW_PV
  6
Continuous
100
AcDbLine
 10
-555.8999023437499
 20
662.5
 30
0.0
 11
-555.8999023437499
 21
685.0
 31
0.0
  0
LINE
  5
12DF
330
1594
100
AcDbEntity
  8
01_VIEW_PV
  6
Continuous
100
AcDbLine
 10
-514.0999755859374
 20
662.5
 30
0.0
 11
-514.0999755859374
 21
690.0
 31
0.0
  0
LINE
  5
12E0
330
1594
100
AcDbEntity
  8
01_VIEW_PV
100
AcDbLine
 10
-545.0
 20
987.5
 30
0.0
 11
-130.0
 21
987.5
 31
0.0
  0
ARC
  5
12E1
330
1594
100
AcDbEntity
  8
01_VIEW_PV
  6
Continuous
100
AcDbCircle
 10
529.0589599609375
 20
473.8359985351562
 30
0.0
 40
6.0
100
AcDbArc
 50
0.0
 51
180.0
  0
LINE
  5
12F0
330
1594
100
AcDbEntity
  8
01_VIEW_PV
100
AcDbLine
 10
-479.2376043070341
 20
748.9999999999999
 30
0.0
 11
-460.7623956929661
 21
749.0
 31
0.0
  0
LINE
  5
12F1
330
1594
100
AcDbEntity
  8
01_VIEW_PV
100
AcDbLine
 10
-460.7623956929661
 20
749.0
 30
0.0
 11
-451.5247913859319
 21
765.0000000000002
 31
0.0
  0
LINE
  5
12F2
330
1594
100
AcDbEntity
  8
01_VIEW_PV
100
AcDbLine
 10
-451.5247913859319
 20
765.0000000000002
 30
0.0
 11
-460.7623956929658
 21
780.9999999999997
 31
0.0
  0
LINE
  5
12F3
330
1594
100
AcDbEntity
  8
01_VIEW_PV
100
AcDbLine
 10
-460.7623956929658
 20
780.9999999999997
 30
0.0
 11
-479.2376043070341
 21
780.9999999999998
 31
0.0
  0
LINE
  5
12F4
330
1594
100
AcDbEntity
  8
01_VIEW_PV
100
AcDbLine
 10
-479.2376043070341
 20
780.9999999999998
 30
0.0
 11
-488.4752086140681
 21
765.0
 31
0.0
  0
LINE
  5
12F5
330
1594
100
AcDbEntity
  8
01_VIEW_PV
100
AcDbLine
 10
-488.4752086140681
 20
765.0
 30
0.0
 11
-479.2376043070341
 21
748.9999999999999
 31
0.0
  0
CIRCLE
  5
12F6
330
1594
100
AcDbEntity
  8
01_VIEW_PV
  6
Continuous
100
AcDbCircle
 10
-470.0
 20
765.0
 30
0.0
 40
15.99999999999988
  0
LINE
  5
12F7
330
1594
100
AcDbEntity
  8
01_VIEW_PV
  6
Continuous
100
AcDbLine
 10
-488.4752086140681
 20
138.4501877673244
 30
0.0
 11
-488.4752086140681
 21
113.0
 31
0.0
  0
LINE
  5
12F8
330
1594
100
AcDbEntity
  8
01_VIEW_PV
  6
Continuous
100
AcDbLine
 10
-479.2376043070341
 20
138.3705866441154
 30
0.0
 11
-479.2376043070341
 21
113.0
 31
0.0
  0
LINE
  5
12FB
330
1594
100
AcDbEntity
  8
01_VIEW_PV
  6
Continuous
100
AcDbLine
 10
-478.3
 20
108.0
 30
0.0
 11
-478.4746038474587
 21
113.0
 31
0.0
  0
LINE
  5
12FC
330
1594
100
AcDbEntity
  8
01_VIEW_PV
  6
Continuous
 62
     7
100
AcDbLine
 10
-485.7908550848822
 20
140.0
 30
0.0
 11
-454.2091449151178
 21
140.0
 31
0.0
  0
ARC
  5
12FE
330
1594
100
AcDbEntity
  8
01_VIEW_PV
  6
Continuous
100
AcDbCircle
 10
-470.0
 20
113.0
 30
0.0
 40
27.0
100
AcDbArc
 50
69.99308859941343
 51
110.0069114005865
  0
ARC
  5
1300
330
1594
100
AcDbEntity
  8
01_VIEW_PV
  6
Continuous
100
AcDbCircle
 10
-483.834825980135
 20
132.7
 30
0.0
 40
7.299999999999999
100
AcDbArc
 50
50.96784801788765
 51
90.16937976009566
  0
LINE
  5
1304
330
1594
100
AcDbEntity
  8
01_VIEW_PV
  6
Continuous
100
AcDbLine
 10
-485.7908550848822
 20
139.9999999999999
 30
0.0
 11
-488.4752086140681
 21
138.4501877673244
 31
0.0
  0
ARC
  5
1305
330
1594
100
AcDbEntity
  8
01_VIEW_PV
  6
Continuous
100
AcDbCircle
 10
-456.165174019865
 20
132.7
 30
0.0
 40
7.299999999999999
100
AcDbArc
 50
89.83062023990434
 51
129.0321519821123
  0
LINE
  5
1306
330
1594
100
AcDbEntity
  8
01_VIEW_PV
  6
Continuous
100
AcDbLine
 10
-454.2091449151178
 20
140.0
 30
0.0
 11
-451.5247913859319
 21
138.4501877673244
 31
0.0
  0
LINE
  5
1307
330
1594
100
AcDbEntity
  8
01_VIEW_PV
  6
Continuous
100
AcDbLine
 10
-460.7623956929658
 20
138.3705866441101
 30
0.0
 11
-460.7623956929658
 21
113.0
 31
0.0
  0
LINE
  5
1308
330
1594
100
AcDbEntity
  8
01_VIEW_PV
  6
Continuous
100
AcDbLine
 10
-451.5247913859319
 20
138.4501877673244
 30
0.0
 11
-451.5247913859319
 21
113.0
 31
0.0
  0
LINE
  5
1309
330
1594
100
AcDbEntity
  8
01_VIEW_PV
  6
Continuous
100
AcDbLine
 10
-461.6999999999999
 20
108.0
 30
0.0
 11
-461.5253961525412
 21
113.0
 31
0.0
  0
LINE
  5
130A
330
1594
100
AcDbEntity
  8
01_VIEW_PV
  6
Continuous
 62
     7
100
AcDbLine
 10
-478.4396830779669
 20
112.0
 30
0.0
 11
-461.560316922033
 21
112.0
 31
0.0
  0
LINE
  5
130B
330
1594
100
AcDbEntity
  8
01_VIEW_PV
  6
Continuous
100
AcDbLine
 10
-477.8003045864904
 20
108.0174497483512
 30
0.0
 11
-477.9393783058176
 21
112.0
 31
0.0
  0
LINE
  5
130C
330
1594
100
AcDbEntity
  8
01_VIEW_PV
  6
Continuous
100
AcDbLine
 10
-462.1996954135095
 20
108.0174497483512
 30
0.0
 11
-462.0606216941824
 21
112.0
 31
0.0
  0
CIRCLE
  5
130D
330
1594
100
AcDbEntity
  8
01_VIEW_PV
  6
Continuous
100
AcDbCircle
 10
-470.0
 20
835.0
 30
0.0
 40
15.99999999999988
  0
LINE
  5
130E
330
1594
100
AcDbEntity
  8
01_VIEW_PV
100
AcDbLine
 10
-479.2376043070341
 20
850.9999999999999
 30
0.0
 11
-488.4752086140681
 21
835.0
 31
0.0
  0
LINE
  5
130F
330
1594
100
AcDbEntity
  8
01_VIEW_PV
100
AcDbLine
 10
-460.7623956929658
 20
850.9999999999998
 30
0.0
 11
-479.2376043070341
 21
850.9999999999999
 31
0.0
  0
LINE
  5
1310
330
1594
100
AcDbEntity
  8
01_VIEW_PV
100
AcDbLine
 10
-451.5247913859319
 20
835.0000000000003
 30
0.0
 11
-460.7623956929658
 21
850.9999999999998
 31
0.0
  0
LINE
  5
1311
330
1594
100
AcDbEntity
  8
01_VIEW_PV
100
AcDbLine
 10
-460.7623956929661
 20
819.0
 30
0.0
 11
-451.5247913859319
 21
835.0000000000003
 31
0.0
  0
LINE
  5
1312
330
1594
100
AcDbEntity
  8
01_VIEW_PV
100
AcDbLine
 10
-479.2376043070341
 20
818.9999999999999
 30
0.0
 11
-460.7623956929661
 21
819.0
 31
0.0
  0
LINE
  5
1313
330
1594
100
AcDbEntity
  8
01_VIEW_PV
100
AcDbLine
 10
-488.4752086140681
 20
835.0
 30
0.0
 11
-479.2376043070341
 21
818.9999999999999
 31
0.0
  0
SOLID
  5
1316
330
1594
100
AcDbEntity
  8
DIM
  6
Continuous
100
AcDbTrace
 10
983.9254380504016
 20
11.78716489259221
 30
0.0
 11
983.0
 21
8.89
 31
0.0
 12
984.8150354182477
 22
11.33041931448399
 32
0.0
 13
984.8150354182477
 23
11.33041931448399
 33
0.0
210
0.0
220
0.0
230
-1.0
1001
ACAD
1000
DSTYLE
1002
{
1070
   172
1070
     1
1070
   144
1040
0.03937
1070
   147
1040
0.5
1070
   271
1070
     2
1070
   178
1070
     1
1070
    41
1040
3.0
1070
   171
1070
     0
1070
   170
1070
     1
1002
}
  0
LWPOLYLINE
  5
148B
330
1594
100
AcDbEntity
  8
DIM
  6
Continuous
100
AcDbPolyline
 90
        3
 70
   128
 43
0.0
 10
-984.3702367343245
 20
11.5587921035381
 10
-1005.289691369028
 20
52.30333933459554
 10
-1008.289691369028
 20
52.30333933459554
1001
ACAD
1000
R13OBJECT
1002
{
1005
1316
1002
}
  0
TEXT
  5
1317
330
1594
100
AcDbEntity
  8
DIM
  6
Continuous
 62
     1
100
AcDbText
 10
-1046.691368809326
 20
50.21973926588808
 30
0.0
 40
4.167200137414932
  1
MT2 or MT3
100
AcDbText
  0
DIMENSION
  5
132C
330
1594
100
AcDbEntity
  8
DIM
  6
Continuous
100
AcDbDimension
  2
*D38
 10
-936.8580885648706
 20
47.5
 30
0.0
 11
-902.4256401311486
 21
99.35686095721576
 31
0.0
 70
   128
  1
\S3.7400^ 3.7394;DIA [%%c95\H2;\S-0.005^ -0.020;\H4.17;]
 71
     5
 42
-1.0
 73
     0
 74
     0
 75
     0
  3
STANDARD
100
AcDbAlignedDimension
 13
-893.0
 23
-47.5
 33
0.0
 14
-893.0
 24
47.5
 34
0.0
 50
90.0
100
AcDbRotatedDimension
1001
ACAD
1000
DSTYLE
1002
{
1070
   172
1070
     1
1070
   144
1040
0.03937
1070
   147
1040
0.5
1070
   271
1070
     2
1070
   178
1070
     1
1070
    41
1040
3.0
1070
   171
1070
     0
1070
   170
1070
     1
1002
}
  0
LINE
  5
1372
330
1594
100
AcDbEntity
  8
01_VIEW_PV
  6
Continuous
 62
     7
100
AcDbLine
 10
508.2229614257812
 20
420.0
 30
0.0
 11
549.8949279785156
 21
420.0
 31
0.0
  0
DIMENSION
  5
1380
330
1594
100
AcDbEntity
  8
DIM
  6
Continuous
100
AcDbDimension
  2
*D39
 10
754.0203167156033
 20
-130.0625
 30
0.0
 11
754.0203167156033
 21
144.96875
 31
0.0
  1
21.65 [550]
 71
     5
 42
-1.0
 73
     0
 74
     0
 75
     0
  3
STANDARD
100
AcDbAlignedDimension
 13
549.8949279785156
 23
420.0
 33
0.0
 14
666.6214599609375
 24
-130.0625
 34
0.0
 50
90.0
100
AcDbRotatedDimension
1001
ACAD
1000
DSTYLE
1002
{
1070
   172
1070
     1
1070
   144
1040
0.03937
1070
   147
1040
0.5
1070
   271
1070
     2
1070
   178
1070
     1
1070
    41
1040
3.0
1070
   171
1070
     0
1070
   170
1070
     1
1002
}
  0
DIMENSION
  5
138E
330
1594
100
AcDbEntity
  8
DIM
  6
Continuous
100
AcDbDimension
  2
*D40
 10
754.0203167156033
 20
479.8359985351563
 30
0.0
 11
754.0203167156033
 21
449.9179992675782
 31
0.0
 71
     5
 42
-1.0
 73
     0
 74
     0
 75
     0
  3
STANDARD
100
AcDbAlignedDimension
 13
549.9574279785156
 23
420.0
 33
0.0
 14
529.0589599609375
 24
479.8359985351563
 34
0.0
 50
90.0
100
AcDbRotatedDimension
1001
ACAD
1000
DSTYLE
1002
{
1070
   172
1070
     1
1070
   144
1040
0.03937
1070
   147
1040
0.5
1070
   271
1070
     2
1070
   178
1070
     1
1070
    41
1040
3.0
1070
   171
1070
     0
1070
   170
1070
     1
1002
}
  0
LINE
  5
13B4
330
1594
100
AcDbEntity
  8
DASH
100
AcDbLine
 10
-923.0
 20
7.392196488865373
 30
0.0
 11
-983.0
 21
8.89
 31
0.0
  0
LINE
  5
13B6
330
1594
100
AcDbEntity
  8
DASH
100
AcDbLine
 10
-923.0
 20
-7.392196488865373
 30
0.0
 11
-983.0
 21
-8.89
 31
0.0
  0
LINE
  5
13B7
330
1594
100
AcDbEntity
  8
01_VIEW_PV
100
AcDbLine
 10
-837.3158052988861
 20
918.0
 30
0.0
 11
-855.0
 21
890.0000610351563
 31
0.0
  0
LINE
  5
13B8
330
1594
100
AcDbEntity
  8
01_VIEW_PV
100
AcDbLine
 10
-757.4444444444444
 20
920.5
 30
0.0
 11
-752.7777777777778
 21
910.0
 31
0.0
  0
ARC
  5
13B9
330
1594
100
AcDbEntity
  8
01_VIEW_PV
100
AcDbCircle
 10
-795.0
 20
920.0
 30
0.0
 40
9.0
100
AcDbArc
 50
180.0
 51
3.184738536720389
  0
LINE
  5
13BA
330
1594
100
AcDbEntity
  8
01_VIEW_PV
  6
Continuous
100
AcDbLine
 10
-815.9000244140624
 20
901.1715087890625
 30
0.0
 11
-815.9000244140624
 21
920.5
 31
0.0
  0
LINE
  5
13BB
330
1594
100
AcDbEntity
  8
01_VIEW_PV
  6
Continuous
100
AcDbLine
 10
-809.9999389648438
 20
902.8572474888393
 30
0.0
 11
-809.9999389648438
 21
920.5
 31
0.0
  0
LINE
  5
13BC
330
1594
100
AcDbEntity
  8
01_VIEW_PV
  6
Continuous
100
AcDbLine
 10
-780.0
 20
910.0
 30
0.0
 11
-780.0
 21
920.5
 31
0.0
  0
LINE
  5
13BD
330
1594
100
AcDbEntity
  8
01_VIEW_PV
  6
Continuous
100
AcDbLine
 10
-774.1000976562499
 20
910.0
 30
0.0
 11
-774.1000976562499
 21
920.5
 31
0.0
  0
ENDSEC
  0
SECTION
  2
OBJECTS
  0
DICTIONARY
  5
1589
330
0
100
AcDbDictionary
281
     1
  3
ACAD_COLOR
350
1663
  3
ACAD_GROUP
350
158A
  3
ACAD_LAYOUT
350
160D
  3
ACAD_MATERIAL
350
164E
  3
ACAD_MLINESTYLE
350
1597
  3
ACAD_PLOTSETTINGS
350
160E
  3
ACAD_PLOTSTYLENAME
350
160B
  3
ACAD_TABLESTYLE
350
1664
  3
ACAD_VISUALSTYLE
350
1652
  3
ACDBVARIABLEDICTIONARY
350
1603
  0
DICTIONARY
  5
163B
330
1594
100
AcDbDictionary
280
     1
281
     1
  3
ACAD_LAYOUTSELFREF
360
163C
  0
DICTIONARY
  5
1639
330
1591
100
AcDbDictionary
280
     1
281
     1
  3
ACAD_LAYOUTSELFREF
360
163A
  0
DICTIONARY
  5
1663
102
{ACAD_REACTORS
330
1589
102
}
330
1589
100
AcDbDictionary
281
     1
  0
DICTIONARY
  5
158A
102
{ACAD_REACTORS
330
1589
102
}
330
1589
100
AcDbDictionary
281
     1
  0
DICTIONARY
  5
160D
102
{ACAD_REACTORS
330
1589
102
}
330
1589
100
AcDbDictionary
281
     1
  3
Layout1
350
1610
  3
Model
350
160F
  0
DICTIONARY
  5
164E
102
{ACAD_REACTORS
330
1589
102
}
330
1589
100
AcDbDictionary
281
     1
  3
ByBlock
350
1650
  3
ByLayer
350
164F
  3
Global
350
1651
  0
DICTIONARY
  5
1597
102
{ACAD_REACTORS
330
1589
102
}
330
1589
100
AcDbDictionary
281
     1
  3
STANDARD
350
1598
  0
DICTIONARY
  5
160E
102
{ACAD_REACTORS
330
1589
102
}
330
1589
100
AcDbDictionary
281
     1
  0
ACDBDICTIONARYWDFLT
  5
160B
102
{ACAD_REACTORS
330
1589
102
}
330
1589
100
AcDbDictionary
281
     1
  3
Normal
350
160C
100
AcDbDictionaryWithDefault
340
160C
  0
DICTIONARY
  5
1664
102
{ACAD_REACTORS
330
1589
102
}
330
1589
100
AcDbDictionary
281
     1
  3
Standard
350
1665
  0
DICTIONARY
  5
1652
102
{ACAD_REACTORS
330
1589
102
}
330
1589
100
AcDbDictionary
281
     1
  3
2dWireframe
350
1658
  3
3D Hidden
350
165A
  3
3dWireframe
350
1659
  3
Basic
350
1657
  3
Brighten
350
165E
  3
ColorChange
350
1662
  3
Conceptual
350
165B
  3
Dim
350
165D
  3
Facepattern
350
1661
  3
Flat
350
1653
  3
FlatWithEdges
350
1654
  3
Gouraud
350
1655
  3
GouraudWithEdges
350
1656
  3
Linepattern
350
1660
  3
Realistic
350
165C
  3
Thicken
350
165F
  0
DICTIONARY
  5
1603
102
{ACAD_REACTORS
330
1589
102
}
330
1589
100
AcDbDictionary
281
     1
  3
CTABLESTYLE
350
1668
  3
DIMADEC
350
1604
  0
XRECORD
  5
163C
102
{ACAD_REACTORS
330
163B
102
}
330
163B
100
AcDbXrecord
280
     1
340
1594
  0
XRECORD
  5
163A
102
{ACAD_REACTORS
330
1639
102
}
330
1639
100
AcDbXrecord
280
     1
340
1591
  0
LAYOUT
  5
1610
102
{ACAD_REACTORS
330
160D
102
}
330
160D
100
AcDbPlotSettings
  1

  2
\\THOR\HP LaserJet 4V
  4

  6

 40
0.0
 41
0.0
 42
0.0
 43
0.0
 44
0.0
 45
0.0
 46
0.0
 47
0.0
 48
0.0
 49
0.0
140
0.0
141
0.0
142
1.0
143
1.0
 70
   688
 72
     0
 73
     0
 74
     5
  7
Sugino.ctb
 75
    16
147
1.0
 76
     0
 77
     2
 78
   300
148
0.0
149
0.0
100
AcDbLayout
  1
Layout1
 70
     0
 71
     1
 10
0.0
 20
0.0
 11
12.0
 21
9.0
 12
0.0
 22
0.0
 32
0.0
 14
1.000000000000000E+20
 24
1.000000000000000E+20
 34
1.000000000000000E+20
 15
-1.000000000000000E+20
 25
-1.000000000000000E+20
 35
-1.000000000000000E+20
146
0.0
 13
0.0
 23
0.0
 33
0.0
 16
1.0
 26
0.0
 36
0.0
 17
0.0
 27
1.0
 37
0.0
 76
     0
330
1591
  0
LAYOUT
  5
160F
102
{ACAD_REACTORS
330
160D
102
}
330
160D
100
AcDbPlotSettings
  1

  2
\\THOR\HPLJ5000PCL6
  4
Letter
  6

 40
6.349999904632568
 41
4.233341693878173
 42
6.349990844726562
 43
4.23333740234375
 44
215.8999938964844
 45
279.3999938964844
 46
0.0
 47
0.0
 48
0.0
 49
0.0
140
0.0
141
0.0
142
1.0
143
227.6675464909393
 70
 11952
 72
     0
 73
     1
 74
     1
  7
Sugino.ctb
 75
     0
147
0.0043923695555783
 76
     0
 77
     2
 78
   300
148
31419.52316118453
149
19240.43883332374
100
AcDbLayout
  1
Model
 70
     1
 71
     0
 10
0.0
 20
0.0
 11
12.0
 21
9.0
 12
0.0
 22
0.0
 32
0.0
 14
0.0
 24
0.0
 34
0.0
 15
0.0
 25
0.0
 35
0.0
146
0.0
 13
0.0
 23
0.0
 33
0.0
 16
1.0
 26
0.0
 36
0.0
 17
0.0
 27
1.0
 37
0.0
 76
     0
330
1594
331
164C
  0
MATERIAL
  5
1650
102
{ACAD_REACTORS
330
164E
102
}
330
164E
100
AcDbMaterial
  1
ByBlock
  0
MATERIAL
  5
164F
102
{ACAD_REACTORS
330
164E
102
}
330
164E
100
AcDbMaterial
  1
ByLayer
  0
MATERIAL
  5
1651
102
{ACAD_REACTORS
330
164E
102
}
330
164E
100
AcDbMaterial
  1
Global
  0
MLINESTYLE
  5
1598
102
{ACAD_REACTORS
330
1597
102
}
330
1597
100
AcDbMlineStyle
  2
STANDARD
 70
     0
  3

 62
   256
 51
90.0
 52
90.0
 71
     2
 49
0.5
 62
   256
  6
BYLAYER
 49
-0.5
 62
   256
  6
BYLAYER
  0
ACDBPLACEHOLDER
  5
160C
102
{ACAD_REACTORS
330
160B
102
}
330
160B
  0
TABLESTYLE
  5
1665
102
{ACAD_REACTORS
330
1664
102
}
330
1664
100
AcDbTableStyle
  3
Standard
 70
     0
 71
     0
 40
0.06
 41
0.06
280
     0
281
     0
  7
STANDARD
140
0.18
170
     2
 62
     0
 63
     7
283
     0
 90
      512
 91
        0
  1

274
    -2
284
     1
 64
     0
275
    -2
285
     1
 65
     0
276
    -2
286
     1
 66
     0
277
    -2
287
     1
 67
     0
278
    -2
288
     1
 68
     0
279
    -2
289
     1
 69
     0
  7
STANDARD
140
0.25
170
     5
 62
     0
 63
     7
283
     0
 90
      512
 91
        0
  1

274
    -2
284
     1
 64
     0
275
    -2
285
     1
 65
     0
276
    -2
286
     1
 66
     0
277
    -2
287
     1
 67
     0
278
    -2
288
     1
 68
     0
279
    -2
289
     1
 69
     0
  7
STANDARD
140
0.18
170
     5
 62
     0
 63
     7
283
     0
 90
      512
 91
        0
  1

274
    -2
284
     1
 64
     0
275
    -2
285
     1
 65
     0
276
    -2
286
     1
 66
     0
277
    -2
287
     1
 67
     0
278
    -2
288
     1
 68
     0
279
    -2
289
     1
 69
     0
  0
VISUALSTYLE
  5
1658
102
{ACAD_REACTORS
330
1652
102
}
330
1652
100
AcDbVisualStyle
  2
2dWireframe
 70
     4
 71
     0
 72
     2
 73
     0
 90
        0
 40
-0.6
 41
-30.0
 62
     5
 63
     7
421
 16777215
 74
     1
 91
        4
 64
     7
 65
   257
 75
     1
175
     1
 42
1.0
 92
        0
 66
   257
 43
1.0
 76
     1
 77
     6
 78
     2
 67
     7
 79
     5
170
     0
171
     0
290
     0
174
     0
 93
        1
 44
0.0
173
     0
291
     0
 45
0.0
  0
VISUALSTYLE
  5
165A
102
{ACAD_REACTORS
330
1652
102
}
330
1652
100
AcDbVisualStyle
  2
3D Hidden
 70
     6
 71
     1
 72
     2
 73
     2
 90
        0
 40
-0.6
 41
-30.0
 62
     5
 63
     7
421
 16777215
 74
     2
 91
        2
 64
     7
 65
   257
 75
     2
175
     1
 42
40.0
 92
        0
 66
   257
 43
1.0
 76
     1
 77
     6
 78
     2
 67
     7
 79
     3
170
     0
171
     0
290
     0
174
     0
 93
        1
 44
0.0
173
     0
291
     0
 45
0.0
  0
VISUALSTYLE
  5
1659
102
{ACAD_REACTORS
330
1652
102
}
330
1652
100
AcDbVisualStyle
  2
3dWireframe
 70
     5
 71
     0
 72
     2
 73
     0
 90
        0
 40
-0.6
 41
-30.0
 62
     5
 63
     7
421
 16777215
 74
     1
 91
        4
 64
     7
 65
   257
 75
     1
175
     1
 42
1.0
 92
        0
 66
   257
 43
1.0
 76
     1
 77
     6
 78
     2
 67
     7
 79
     5
170
     0
171
     0
290
     0
174
     0
 93
        1
 44
0.0
173
     0
291
     0
 45
0.0
  0
VISUALSTYLE
  5
1657
102
{ACAD_REACTORS
330
1652
102
}
330
1652
100
AcDbVisualStyle
  2
Basic
 70
     7
 71
     1
 72
     0
 73
     1
 90
        0
 40
-0.6
 41
-30.0
 62
     5
 63
     7
421
 16777215
 74
     0
 91
        4
 64
     7
 65
   257
 75
     1
175
     1
 42
1.0
 92
        8
 66
     7
 43
1.0
 76
     1
 77
     6
 78
     2
 67
     7
 79
     5
170
     0
171
     0
290
     0
174
     0
 93
        1
 44
0.0
173
     0
291
     1
 45
0.0
  0
VISUALSTYLE
  5
165E
102
{ACAD_REACTORS
330
1652
102
}
330
1652
100
AcDbVisualStyle
  2
Brighten
 70
    12
 71
     2
 72
     2
 73
     0
 90
        0
 40
-0.6
 41
-30.0
 62
     5
 63
     7
421
 16777215
 74
     1
 91
        4
 64
     7
 65
   257
 75
     1
175
     1
 42
1.0
 92
        8
 66
     7
 43
1.0
 76
     1
 77
     6
 78
     2
 67
     7
 79
     5
170
     0
171
     0
290
     0
174
     0
 93
        1
 44
50.0
173
     0
291
     1
 45
0.0
  0
VISUALSTYLE
  5
1662
102
{ACAD_REACTORS
330
1652
102
}
330
1652
100
AcDbVisualStyle
  2
ColorChange
 70
    16
 71
     2
 72
     2
 73
     3
 90
        0
 40
-0.6
 41
-30.0
 62
     5
 63
     8
421
  8421504
 74
     1
 91
        4
 64
     7
 65
   257
 75
     1
175
     1
 42
1.0
 92
        8
 66
     8
424
  8421504
 43
1.0
 76
     1
 77
     6
 78
     2
 67
     7
 79
     5
170
     0
171
     0
290
     0
174
     0
 93
        1
 44
0.0
173
     0
291
     1
 45
0.0
  0
VISUALSTYLE
  5
165B
102
{ACAD_REACTORS
330
1652
102
}
330
1652
100
AcDbVisualStyle
  2
Conceptual
 70
     9
 71
     3
 72
     2
 73
     0
 90
        0
 40
-0.6
 41
-30.0
 62
     5
 63
     7
421
 16777215
 74
     2
 91
        2
 64
     7
 65
   257
 75
     1
175
     1
 42
40.0
 92
        8
 66
     7
 43
1.0
 76
     1
 77
     6
 78
     2
 67
     7
 79
     3
170
     0
171
     0
290
     0
174
     0
 93
        1
 44
0.0
173
     0
291
     0
 45
0.0
  0
VISUALSTYLE
  5
165D
102
{ACAD_REACTORS
330
1652
102
}
330
1652
100
AcDbVisualStyle
  2
Dim
 70
    11
 71
     2
 72
     2
 73
     0
 90
        0
 40
-0.6
 41
-30.0
 62
     5
 63
     7
421
 16777215
 74
     1
 91
        4
 64
     7
 65
   257
 75
     1
175
     1
 42
1.0
 92
        8
 66
     7
 43
1.0
 76
     1
 77
     6
 78
     2
 67
     7
 79
     5
170
     0
171
     0
290
     0
174
     0
 93
        1
 44
-50.0
173
     0
291
     1
 45
0.0
  0
VISUALSTYLE
  5
1661
102
{ACAD_REACTORS
330
1652
102
}
330
1652
100
AcDbVisualStyle
  2
Facepattern
 70
    15
 71
     2
 72
     2
 73
     0
 90
        0
 40
-0.6
 41
-30.0
 62
     5
 63
     7
421
 16777215
 74
     1
 91
        4
 64
     7
 65
   257
 75
     1
175
     1
 42
1.0
 92
        8
 66
     7
 43
1.0
 76
     1
 77
     6
 78
     2
 67
     7
 79
     5
170
     0
171
     0
290
     0
174
     0
 93
        1
 44
0.0
173
     0
291
     1
 45
0.0
  0
VISUALSTYLE
  5
1653
102
{ACAD_REACTORS
330
1652
102
}
330
1652
100
AcDbVisualStyle
  2
Flat
 70
     0
 71
     2
 72
     1
 73
     1
 90
        2
 40
-0.6
 41
30.0
 62
     5
 63
     7
421
 16777215
 74
     0
 91
        4
 64
     7
 65
   257
 75
     1
175
     1
 42
1.0
 92
        8
 66
     7
 43
1.0
 76
     1
 77
     6
 78
     2
 67
     7
 79
     5
170
     0
171
     0
290
     0
174
     0
 93
       13
 44
0.0
173
     0
291
     1
 45
0.0
  0
VISUALSTYLE
  5
1654
102
{ACAD_REACTORS
330
1652
102
}
330
1652
100
AcDbVisualStyle
  2
FlatWithEdges
 70
     1
 71
     2
 72
     1
 73
     1
 90
        2
 40
-0.6
 41
30.0
 62
     5
 63
     7
421
 16777215
 74
     1
 91
        4
 64
     7
 65
   257
 75
     1
175
     1
 42
1.0
 92
        0
 66
   257
 43
1.0
 76
     1
 77
     6
 78
     2
 67
     7
 79
     5
170
     0
171
     0
290
     0
174
     0
 93
       13
 44
0.0
173
     0
291
     1
 45
0.0
  0
VISUALSTYLE
  5
1655
102
{ACAD_REACTORS
330
1652
102
}
330
1652
100
AcDbVisualStyle
  2
Gouraud
 70
     2
 71
     2
 72
     2
 73
     1
 90
        2
 40
-0.6
 41
30.0
 62
     5
 63
     7
421
 16777215
 74
     0
 91
        4
 64
     7
 65
   257
 75
     1
175
     1
 42
1.0
 92
        0
 66
     7
 43
1.0
 76
     1
 77
     6
 78
     2
 67
     7
 79
     5
170
     0
171
     0
290
     0
174
     0
 93
       13
 44
0.0
173
     0
291
     1
 45
0.0
  0
VISUALSTYLE
  5
1656
102
{ACAD_REACTORS
330
1652
102
}
330
1652
100
AcDbVisualStyle
  2
GouraudWithEdges
 70
     3
 71
     2
 72
     2
 73
     1
 90
        2
 40
-0.6
 41
30.0
 62
     5
 63
     7
421
 16777215
 74
     1
 91
        4
 64
     7
 65
   257
 75
     1
175
     1
 42
1.0
 92
        0
 66
   257
 43
1.0
 76
     1
 77
     6
 78
     2
 67
     7
 79
     5
170
     0
171
     0
290
     0
174
     0
 93
       13
 44
0.0
173
     0
291
     1
 45
0.0
  0
VISUALSTYLE
  5
1660
102
{ACAD_REACTORS
330
1652
102
}
330
1652
100
AcDbVisualStyle
  2
Linepattern
 70
    14
 71
     2
 72
     2
 73
     0
 90
        0
 40
-0.6
 41
-30.0
 62
     5
 63
     7
421
 16777215
 74
     1
 91
        4
 64
     7
 65
   257
 75
     7
175
     7
 42
1.0
 92
        8
 66
     7
 43
1.0
 76
     1
 77
     6
 78
     2
 67
     7
 79
     5
170
     0
171
     0
290
     0
174
     0
 93
        1
 44
0.0
173
     0
291
     1
 45
0.0
  0
VISUALSTYLE
  5
165C
102
{ACAD_REACTORS
330
1652
102
}
330
1652
100
AcDbVisualStyle
  2
Realistic
 70
     8
 71
     2
 72
     2
 73
     0
 90
        0
 40
-0.6
 41
-30.0
 62
     5
 63
     7
421
 16777215
 74
     1
 91
        0
 64
     7
 65
   257
 75
     1
175
     1
 42
1.0
 92
        8
 66
     8
424
  7895160
 43
1.0
 76
     1
 77
     6
 78
     2
 67
     7
 79
     5
170
     0
171
     0
290
     0
174
     0
 93
       13
 44
0.0
173
     0
291
     0
 45
0.0
  0
VISUALSTYLE
  5
165F
102
{ACAD_REACTORS
330
1652
102
}
330
1652
100
AcDbVisualStyle
  2
Thicken
 70
    13
 71
     2
 72
     2
 73
     0
 90
        0
 40
-0.6
 41
-30.0
 62
     5
 63
     7
421
 16777215
 74
     1
 91
        4
 64
     7
 65
   257
 75
     1
175
     1
 42
1.0
 92
       12
 66
     7
 43
1.0
 76
     1
 77
     6
 78
     2
 67
     7
 79
     5
170
     0
171
     0
290
     0
174
     0
 93
        1
 44
0.0
173
     0
291
     1
 45
0.0
  0
DICTIONARYVAR
  5
1668
102
{ACAD_REACTORS
330
1603
102
}
330
1603
100
DictionaryVariables
280
     0
  1
STANDARD
  0
DICTIONARYVAR
  5
1604
102
{ACAD_REACTORS
330
1603
102
}
330
1603
100
DictionaryVariables
280
     0
  1
0
  0
ENDSEC
  0
EOF
